<?xml version="1.0" standalone="no"?>
<!DOCTYPE svg PUBLIC "-//W3C//DTD SVG 1.1//EN" "http://www.w3.org/Graphics/SVG/1.1/DTD/svg11.dtd" >
<svg>
<metadata>
Created by FontForge 20120731 at Mon Jul  8 08:46:44 2024
 By www-data
Copyright 2023 The Kode Mono Project Authors (https://github.com/isaozler/kode-mono)
</metadata>
<defs>
<font id="KodeMono-Bold" horiz-adv-x="600" >
  <font-face 
    font-family="Kode Mono"
    font-weight="700"
    font-stretch="normal"
    units-per-em="1000"
    panose-1="2 11 5 9 7 5 2 8 5 3"
    ascent="800"
    descent="-200"
    x-height="551"
    cap-height="700"
    bbox="-1180 -500 756 1034"
    underline-thickness="50"
    underline-position="-75"
    unicode-range="U+000D-FFFFF"
  />
<missing-glyph 
d="M13 487l62 -96l123 126h191l55 -82l-206 -213v-119h122v84l227 236l-137 207h-300zM422 -77h124v114h-124v-114zM422 97h124v114h-124v-114zM54 -77h124v114h-124v-114zM54 97h124v114h-124v-114zM422 -251h124v114h-124v-114zM54 -251h124v114h-124v-114zM238 -251h124
v114h-124v-114z" />
    <glyph glyph-name=".notdef" 
d="M13 487l62 -96l123 126h191l55 -82l-206 -213v-119h122v84l227 236l-137 207h-300zM422 -77h124v114h-124v-114zM422 97h124v114h-124v-114zM54 -77h124v114h-124v-114zM54 97h124v114h-124v-114zM422 -251h124v114h-124v-114zM54 -251h124v114h-124v-114zM238 -251h124
v114h-124v-114z" />
    <glyph glyph-name="A" unicode="A" 
d="M253 700l-173 -179v-521h119v299h200v-299h121v700h-267zM199 486l98 101h102v-175h-200v74z" />
    <glyph glyph-name="Aacute" unicode="&#xc1;" 
d="M253 700l-173 -179v-521h119v299h200v-299h121v700h-267zM199 486l98 101h102v-175h-200v74zM285 740l231 111l-65 94l-208 -136z" />
    <glyph glyph-name="Abreve" unicode="&#x102;" 
d="M253 700l-173 -179v-521h119v299h200v-299h121v700h-267zM199 486l98 101h102v-175h-200v74zM179 852v81h130v-93h142v93h130v-81l-112 -112h-178z" />
    <glyph glyph-name="Acircumflex" unicode="&#xc2;" 
d="M253 700l-173 -179v-521h119v299h200v-299h121v700h-267zM199 486l98 101h102v-175h-200v74zM410 924h-59l-157 -119l58 -65l128 82l129 -82l57 65z" />
    <glyph glyph-name="Adieresis" unicode="&#xc4;" 
d="M253 700l-173 -179v-521h119v299h200v-299h121v700h-267zM199 486l98 101h102v-175h-200v74zM220 740v110h110v-110h-110zM430 740v110h110v-110h-110z" />
    <glyph glyph-name="Agrave" unicode="&#xc0;" 
d="M253 700l-173 -179v-521h119v299h200v-299h121v700h-267zM199 486l98 101h102v-175h-200v74zM475 733l42 69l-208 136l-65 -94z" />
    <glyph glyph-name="Amacron" unicode="&#x100;" 
d="M253 700l-173 -179v-521h119v299h200v-299h121v700h-267zM199 486l98 101h102v-175h-200v74zM531 740h-302v113h302v-113z" />
    <glyph glyph-name="Aogonek" unicode="&#x104;" 
d="M253 700l-173 -179v-521h119v299h200v-299h121v700h-267zM199 486l98 101h102v-175h-200v74zM520 -139h-100l100 139l-113 10l-87 -108v-61l80 -67h120v87z" />
    <glyph glyph-name="Aring" unicode="&#xc5;" 
d="M253 700l-173 -179v-521h119v299h200v-299h121v700h-267zM199 486l98 101h102v-175h-200v74zM330 973l-67 -68v-98l67 -67h98l69 67v98l-69 68h-98zM361 901h37l27 -28v-36l-27 -25h-37l-26 25v36z" />
    <glyph glyph-name="Atilde" unicode="&#xc3;" 
d="M253 700l-173 -179v-521h119v299h200v-299h121v700h-267zM199 486l98 101h102v-175h-200v74zM552 893l-86 -52l-184 49l-122 -73l48 -80l89 56l181 -53l122 73z" />
    <glyph glyph-name="AE" unicode="&#xc6;" 
d="M173 720l-175 -180v-540h121v312h161v-312h322v113h-201v199h140v113h-140v182h201v113h-429zM119 504l100 103h61v-182h-161v79z" />
    <glyph glyph-name="B" unicode="B" 
d="M59 700v-700h389l94 58v202l-102 150h-5l98 102v107l-57 81h-417zM180 588h231v-39l-132 -139h-99v178zM180 298h200l42 -58v-127h-242v185z" />
    <glyph glyph-name="C" unicode="C" 
d="M165 700h300l81 -122l-80 -84l-61 92h-194l-18 -20v-409l29 -44h192l71 71l63 -94l-86 -90h-300l-90 134v472z" />
    <glyph glyph-name="Cacute" unicode="&#x106;" 
d="M165 700h300l81 -122l-80 -84l-61 92h-194l-18 -20v-409l29 -44h192l71 71l63 -94l-86 -90h-300l-90 134v472zM205 740l231 111l-65 94l-208 -136z" />
    <glyph glyph-name="Ccaron" unicode="&#x10c;" 
d="M165 700h300l81 -122l-80 -84l-61 92h-194l-18 -20v-409l29 -44h192l71 71l63 -94l-86 -90h-300l-90 134v472zM330 740l156 119l-57 65l-129 -82l-128 82l-58 -65l157 -119h59z" />
    <glyph glyph-name="Ccedilla" unicode="&#xc7;" 
d="M165 700h300l81 -122l-80 -84l-61 92h-194l-18 -20v-409l29 -44h192l71 71l63 -94l-86 -90h-300l-90 134v472zM230 -134h100l-100 139h120l80 -98v-61l-80 -66h-120v86z" />
    <glyph glyph-name="Cdotaccent" unicode="&#x10a;" 
d="M165 700h300l81 -122l-80 -84l-61 92h-194l-18 -20v-409l29 -44h192l71 71l63 -94l-86 -90h-300l-90 134v472zM230 740v140h140v-140h-140z" />
    <glyph glyph-name="D" unicode="D" 
d="M68 700h340l144 -215v-390l-91 -95h-393v700zM189 587v-475h222l20 20v330l-85 125h-157z" />
    <glyph glyph-name="Eth" unicode="&#xd0;" 
d="M68 700h340l144 -215v-390l-91 -95h-393v700zM189 587v-475h222l20 20v330l-85 125h-157zM259 284h-260v112h260v-112z" />
    <glyph glyph-name="Dcaron" unicode="&#x10e;" 
d="M68 700h340l144 -215v-390l-91 -95h-393v700zM189 587v-475h222l20 20v330l-85 125h-157zM330 740l156 119l-57 65l-129 -82l-128 82l-58 -65l157 -119h59z" />
    <glyph glyph-name="Dcroat" unicode="&#x110;" 
d="M68 700h340l144 -215v-390l-91 -95h-393v700zM189 587v-475h222l20 20v330l-85 125h-157zM259 284h-260v112h260v-112z" />
    <glyph glyph-name="E" unicode="E" 
d="M141 700l-93 -95v-471l90 -134h393v113h-333l-29 44v140h231v113h-231v157l18 20h344v113h-390z" />
    <glyph glyph-name="Eacute" unicode="&#xc9;" 
d="M141 700l-93 -95v-471l90 -134h393v113h-333l-29 44v140h231v113h-231v157l18 20h344v113h-390zM205 740l231 111l-65 94l-208 -136z" />
    <glyph glyph-name="Ecaron" unicode="&#x11a;" 
d="M141 700l-93 -95v-471l90 -134h393v113h-333l-29 44v140h231v113h-231v157l18 20h344v113h-390zM330 740l156 119l-57 65l-129 -82l-128 82l-58 -65l157 -119h59z" />
    <glyph glyph-name="Ecircumflex" unicode="&#xca;" 
d="M141 700l-93 -95v-471l90 -134h393v113h-333l-29 44v140h231v113h-231v157l18 20h344v113h-390zM330 924h-59l-157 -119l58 -65l128 82l129 -82l57 65z" />
    <glyph glyph-name="Edieresis" unicode="&#xcb;" 
d="M141 700l-93 -95v-471l90 -134h393v113h-333l-29 44v140h231v113h-231v157l18 20h344v113h-390zM140 740v110h110v-110h-110zM350 740v110h110v-110h-110z" />
    <glyph glyph-name="Edotaccent" unicode="&#x116;" 
d="M141 700l-93 -95v-471l90 -134h393v113h-333l-29 44v140h231v113h-231v157l18 20h344v113h-390zM230 740v140h140v-140h-140z" />
    <glyph glyph-name="Egrave" unicode="&#xc8;" 
d="M141 700l-93 -95v-471l90 -134h393v113h-333l-29 44v140h231v113h-231v157l18 20h344v113h-390zM395 733l42 69l-208 136l-65 -94z" />
    <glyph glyph-name="Emacron" unicode="&#x112;" 
d="M141 700l-93 -95v-471l90 -134h393v113h-333l-29 44v140h231v113h-231v157l18 20h344v113h-390zM451 740h-302v113h302v-113z" />
    <glyph glyph-name="Eogonek" unicode="&#x118;" 
d="M141 700l-93 -95v-471l90 -134h393v113h-333l-29 44v140h231v113h-231v157l18 20h344v113h-390zM360 -129h-100l100 139l-113 10l-87 -108v-61l80 -67h120v87z" />
    <glyph glyph-name="F" unicode="F" 
d="M199 700l-110 -112v-588h121v298h211v113h-211v139l36 37h286v113h-333z" />
    <glyph glyph-name="G" unicode="G" 
d="M151 700l-92 -96v-475l86 -129h396v353l-50 76h-211v-112h141v-204h-216l-25 39v416l18 19h192l61 -91l80 81l-82 123h-298z" />
    <glyph glyph-name="Gbreve" unicode="&#x11e;" 
d="M151 700l-92 -96v-475l86 -129h396v353l-50 76h-211v-112h141v-204h-216l-25 39v416l18 19h192l61 -91l80 81l-82 123h-298zM99 852v81h130v-93h142v93h130v-81l-112 -112h-178z" />
    <glyph glyph-name="uni0122" unicode="&#x122;" 
d="M151 700l-92 -96v-475l86 -129h396v353l-50 76h-211v-112h141v-204h-216l-25 39v416l18 19h192l61 -91l80 81l-82 123h-298zM245 -326l156 204l-101 54l-124 -215z" />
    <glyph glyph-name="Gdotaccent" unicode="&#x120;" 
d="M151 700l-92 -96v-475l86 -129h396v353l-50 76h-211v-112h141v-204h-216l-25 39v416l18 19h192l61 -91l80 81l-82 123h-298zM230 740v140h140v-140h-140z" />
    <glyph glyph-name="H" unicode="H" 
d="M58 700h121v-302l58 32h129l55 -32v302h121v-700h-121v276l-28 42h-197l-17 -19v-299h-121v700z" />
    <glyph glyph-name="Hbar" unicode="&#x126;" 
d="M58 700h121v-302l58 32h129l55 -32v302h121v-700h-121v276l-28 42h-197l-17 -19v-299h-121v700zM600 499h-600v112h600v-112z" />
    <glyph glyph-name="I" unicode="I" 
d="M58 700v-113h181v-474h-181v-113h484v113h-182v474h182v113h-484z" />
    <glyph glyph-name="IJ" unicode="&#x132;" 
d="M18 722v-113h132l29 -44v-565h121v574l33 35h110l-22 -30v-529l-100 -106h-142v-113h190l172 182v596h41v113h-296l-43 -46l-33 46h-192z" />
    <glyph glyph-name="Iacute" unicode="&#xcd;" 
d="M58 700v-113h181v-474h-181v-113h484v113h-182v474h182v113h-484zM205 764l231 111l-65 94l-208 -136z" />
    <glyph glyph-name="Icircumflex" unicode="&#xce;" 
d="M58 700v-113h181v-474h-181v-113h484v113h-182v474h182v113h-484zM330 948h-59l-157 -119l58 -65l128 82l129 -82l57 65z" />
    <glyph glyph-name="Idieresis" unicode="&#xcf;" 
d="M58 700v-113h181v-474h-181v-113h484v113h-182v474h182v113h-484zM140 764v110h110v-110h-110zM350 764v110h110v-110h-110z" />
    <glyph glyph-name="Idotaccent" unicode="&#x130;" 
d="M58 700v-113h181v-474h-181v-113h484v113h-182v474h182v113h-484zM230 764v140h140v-140h-140z" />
    <glyph glyph-name="Igrave" unicode="&#xcc;" 
d="M58 700v-113h181v-474h-181v-113h484v113h-182v474h182v113h-484zM395 757l42 69l-208 136l-65 -94z" />
    <glyph glyph-name="Imacron" unicode="&#x12a;" 
d="M58 700v-113h181v-474h-181v-113h484v113h-182v474h182v113h-484zM451 764h-302v113h302v-113z" />
    <glyph glyph-name="Iogonek" unicode="&#x12e;" 
d="M58 700v-113h181v-474h-181v-113h484v113h-182v474h182v113h-484zM360 -129h-100l100 139l-113 10l-87 -108v-61l80 -67h120v87z" />
    <glyph glyph-name="J" unicode="J" 
d="M89 700v-113h302v-442l-100 -105h-122v-113h170l172 182v591h-422z" />
    <glyph glyph-name="K" unicode="K" 
d="M404 700l-252 -255v255h-121v-700h121v282l55 54l230 -336h133l-278 418l273 282h-161z" />
    <glyph glyph-name="uni0136" unicode="&#x136;" 
d="M404 700l-252 -255v255h-121v-700h121v282l55 54l230 -336h133l-278 418l273 282h-161zM245 -326l156 204l-101 54l-124 -215z" />
    <glyph glyph-name="L" unicode="L" 
d="M58 700v-562l91 -138h393v186h-121v-73h-211l-31 45v542h-121z" />
    <glyph glyph-name="Lacute" unicode="&#x139;" 
d="M58 700v-562l91 -138h393v186h-121v-73h-211l-31 45v542h-121zM24 750l231 111l-65 94l-208 -136z" />
    <glyph glyph-name="Lcaron" unicode="&#x13d;" 
d="M58 700v-562l91 -138h393v186h-121v-73h-211l-31 45v542h-121zM348 734l139 -17l-78 -232l-98 16z" />
    <glyph glyph-name="uni013B" unicode="&#x13b;" 
d="M58 700v-562l91 -138h393v186h-121v-73h-211l-31 45v542h-121zM245 -326l156 204l-101 54l-124 -215z" />
    <glyph glyph-name="Lslash" unicode="&#x141;" 
d="M58 700v-562l91 -138h393v186h-121v-73h-211l-31 45v542h-121zM360 648l-244 -719l105 -35l244 719z" />
    <glyph glyph-name="M" unicode="M" 
d="M59 700v-700h121v509l75 -112v-16h87v63l79 93v-537h121v700h-121l-136 -168l-105 157v11h-121z" />
    <glyph glyph-name="N" unicode="N" 
d="M421 700v-274l-173 274h-189v-700h121v567h8l233 -347v-220h121v700h-121z" />
    <glyph glyph-name="Nacute" unicode="&#x143;" 
d="M421 700v-274l-173 274h-189v-700h121v567h8l233 -347v-220h121v700h-121zM205 740l231 111l-65 94l-208 -136z" />
    <glyph glyph-name="Ncaron" unicode="&#x147;" 
d="M421 700v-274l-173 274h-189v-700h121v567h8l233 -347v-220h121v700h-121zM330 740l156 119l-57 65l-129 -82l-128 82l-58 -65l157 -119h59z" />
    <glyph glyph-name="uni0145" unicode="&#x145;" 
d="M421 700v-274l-173 274h-189v-700h121v567h8l233 -347v-220h121v700h-121zM245 -326l156 204l-101 54l-124 -215z" />
    <glyph glyph-name="Ntilde" unicode="&#xd1;" 
d="M421 700v-274l-173 274h-189v-700h121v567h8l233 -347v-220h121v700h-121zM472 893l-86 -52l-184 49l-122 -73l48 -80l89 56l181 -53l122 73z" />
    <glyph glyph-name="O" unicode="O" 
d="M152 700h301l88 -134v-470l-91 -96h-300l-91 134v470zM180 156l29 -43h192l19 20v411l-29 43h-193l-18 -20v-411z" />
    <glyph glyph-name="Oacute" unicode="&#xd3;" 
d="M152 700h301l88 -134v-470l-91 -96h-300l-91 134v470zM180 156l29 -43h192l19 20v411l-29 43h-193l-18 -20v-411zM205 740l231 111l-65 94l-208 -136z" />
    <glyph glyph-name="Ocircumflex" unicode="&#xd4;" 
d="M152 700h301l88 -134v-470l-91 -96h-300l-91 134v470zM180 156l29 -43h192l19 20v411l-29 43h-193l-18 -20v-411zM330 924h-59l-157 -119l58 -65l128 82l129 -82l57 65z" />
    <glyph glyph-name="Odieresis" unicode="&#xd6;" 
d="M152 700h301l88 -134v-470l-91 -96h-300l-91 134v470zM180 156l29 -43h192l19 20v411l-29 43h-193l-18 -20v-411zM140 740v110h110v-110h-110zM350 740v110h110v-110h-110z" />
    <glyph glyph-name="Ograve" unicode="&#xd2;" 
d="M152 700h301l88 -134v-470l-91 -96h-300l-91 134v470zM180 156l29 -43h192l19 20v411l-29 43h-193l-18 -20v-411zM395 733l42 69l-208 136l-65 -94z" />
    <glyph glyph-name="Ohungarumlaut" unicode="&#x150;" 
d="M152 700h301l88 -134v-470l-91 -96h-300l-91 134v470zM180 156l29 -43h192l19 20v411l-29 43h-193l-18 -20v-411zM213 740l156 204l-101 54l-124 -215zM387 740l179 183l-93 66l-149 -199z" />
    <glyph glyph-name="Oslash" unicode="&#xd8;" 
d="M152 700h301l88 -134v-470l-91 -96h-300l-91 134v470zM180 156l29 -43h192l19 20v411l-29 43h-193l-18 -20v-411zM412 802l105 -35l-302 -889l-105 35z" />
    <glyph glyph-name="Otilde" unicode="&#xd5;" 
d="M152 700h301l88 -134v-470l-91 -96h-300l-91 134v470zM180 156l29 -43h192l19 20v411l-29 43h-193l-18 -20v-411zM472 893l-86 -52l-184 49l-122 -73l48 -80l89 56l181 -53l122 73z" />
    <glyph glyph-name="OE" unicode="&#x152;" 
d="M119 587l19 20h113l29 -43v-431l-19 -20h-113l-29 43v431zM401 317h140v113h-140v156l-15 21h216v113h-511l-93 -95v-491l91 -134h513v113h-218l17 17v187z" />
    <glyph glyph-name="P" unicode="P" 
d="M58 700v-700h121v296h272l91 93v177l-89 134h-395zM179 587h213l29 -44v-117l-19 -19h-167l-56 -33v213z" />
    <glyph glyph-name="Thorn" unicode="&#xde;" 
d="M59 744v-744h120v132l57 -32h212l93 96v291l-91 136h-217l-54 -33v154h-120zM179 489l20 20h192l30 -43v-234l-19 -19h-223v276z" />
    <glyph glyph-name="Q" unicode="Q" 
d="M153 700l-94 -96v-470l91 -134h257l35 -48l92 63l-140 208l-92 -64l31 -46h-124l-29 44v411l17 19h194l29 -42v-357l121 126v252l-91 134h-297z" />
    <glyph glyph-name="R" unicode="R" 
d="M58 700v-700h121v327l53 -33h98l91 -133v-161h121v182l-92 135l92 95v117l-117 171h-367zM179 587h185l57 -82v-58l-39 -40h-203v180z" />
    <glyph glyph-name="Racute" unicode="&#x154;" 
d="M58 700v-700h121v327l53 -33h98l91 -133v-161h121v182l-92 135l92 95v117l-117 171h-367zM179 587h185l57 -82v-58l-39 -40h-203v180zM205 740l231 111l-65 94l-208 -136z" />
    <glyph glyph-name="Rcaron" unicode="&#x158;" 
d="M58 700v-700h121v327l53 -33h98l91 -133v-161h121v182l-92 135l92 95v117l-117 171h-367zM179 587h185l57 -82v-58l-39 -40h-203v180zM330 740l156 119l-57 65l-129 -82l-128 82l-58 -65l157 -119h59z" />
    <glyph glyph-name="S" unicode="S" 
d="M153 700h303l69 -104l-82 -80l-48 71h-195l-18 -19v-117l30 -44h253l80 -121v-201l-82 -85h-349l-59 84l79 82l39 -53h240l11 9v144l-20 28h-253l-90 134v176z" />
    <glyph glyph-name="Sacute" unicode="&#x15a;" 
d="M153 700h303l69 -104l-82 -80l-48 71h-195l-18 -19v-117l30 -44h253l80 -121v-201l-82 -85h-349l-59 84l79 82l39 -53h240l11 9v144l-20 28h-253l-90 134v176zM205 740l231 111l-65 94l-208 -136z" />
    <glyph glyph-name="Scaron" unicode="&#x160;" 
d="M153 700h303l69 -104l-82 -80l-48 71h-195l-18 -19v-117l30 -44h253l80 -121v-201l-82 -85h-349l-59 84l79 82l39 -53h240l11 9v144l-20 28h-253l-90 134v176zM330 740l156 119l-57 65l-129 -82l-128 82l-58 -65l157 -119h59z" />
    <glyph glyph-name="Scedilla" unicode="&#x15e;" 
d="M153 700h303l69 -104l-82 -80l-48 71h-195l-18 -19v-117l30 -44h253l80 -121v-201l-82 -85h-349l-59 84l79 82l39 -53h240l11 9v144l-20 28h-253l-90 134v176zM230 -134h100l-100 139h120l80 -98v-61l-80 -66h-120v86z" />
    <glyph glyph-name="uni0218" unicode="&#x218;" 
d="M153 700h303l69 -104l-82 -80l-48 71h-195l-18 -19v-117l30 -44h253l80 -121v-201l-82 -85h-349l-59 84l79 82l39 -53h240l11 9v144l-20 28h-253l-90 134v176zM245 -326l156 204l-101 54l-124 -215z" />
    <glyph glyph-name="uni1E9E" unicode="&#x1e9e;" 
d="M230 741l-172 -179v-562h121v524l99 104h106l-175 -181v-110h155l56 -84v-116l-22 -24h-113v-113h160l96 100v174l-118 176h-53l172 179v112h-312z" />
    <glyph glyph-name="T" unicode="T" 
d="M39 700h522v-113h-266l66 -59v-528h-121v500l-29 87h-172v113z" />
    <glyph glyph-name="Tcaron" unicode="&#x164;" 
d="M39 700h522v-113h-266l66 -59v-528h-121v500l-29 87h-172v113zM330 740l156 119l-57 65l-129 -82l-128 82l-58 -65l157 -119h59z" />
    <glyph glyph-name="uni021A" unicode="&#x21a;" 
d="M39 700h522v-113h-266l66 -59v-528h-121v500l-29 87h-172v113zM245 -326l156 204l-101 54l-124 -215z" />
    <glyph glyph-name="U" unicode="U" 
d="M421 700v-567l-20 -20h-193l-29 44v543h-121v-566l91 -134h217l55 34v-34h121v700h-121z" />
    <glyph glyph-name="Uacute" unicode="&#xda;" 
d="M421 700v-567l-20 -20h-193l-29 44v543h-121v-566l91 -134h217l55 34v-34h121v700h-121zM205 740l231 111l-65 94l-208 -136z" />
    <glyph glyph-name="Ucircumflex" unicode="&#xdb;" 
d="M421 700v-567l-20 -20h-193l-29 44v543h-121v-566l91 -134h217l55 34v-34h121v700h-121zM330 924h-59l-157 -119l58 -65l128 82l129 -82l57 65z" />
    <glyph glyph-name="Udieresis" unicode="&#xdc;" 
d="M421 700v-567l-20 -20h-193l-29 44v543h-121v-566l91 -134h217l55 34v-34h121v700h-121zM140 740v110h110v-110h-110zM350 740v110h110v-110h-110z" />
    <glyph glyph-name="Ugrave" unicode="&#xd9;" 
d="M421 700v-567l-20 -20h-193l-29 44v543h-121v-566l91 -134h217l55 34v-34h121v700h-121zM395 733l42 69l-208 136l-65 -94z" />
    <glyph glyph-name="Uhungarumlaut" unicode="&#x170;" 
d="M421 700v-567l-20 -20h-193l-29 44v543h-121v-566l91 -134h217l55 34v-34h121v700h-121zM213 740l156 204l-101 54l-124 -215zM387 740l179 183l-93 66l-149 -199z" />
    <glyph glyph-name="Umacron" unicode="&#x16a;" 
d="M421 700v-567l-20 -20h-193l-29 44v543h-121v-566l91 -134h217l55 34v-34h121v700h-121zM451 740h-302v113h302v-113z" />
    <glyph glyph-name="Uogonek" unicode="&#x172;" 
d="M421 700v-567l-20 -20h-193l-29 44v543h-121v-566l91 -134h217l55 34v-34h121v700h-121zM542 -139h-100l100 139l-113 10l-87 -108v-61l80 -67h120v87z" />
    <glyph glyph-name="Uring" unicode="&#x16e;" 
d="M421 700v-567l-20 -20h-193l-29 44v543h-121v-566l91 -134h217l55 34v-34h121v700h-121zM250 973l-67 -68v-98l67 -67h98l69 67v98l-69 68h-98zM281 901h37l27 -28v-36l-27 -25h-37l-26 25v36z" />
    <glyph glyph-name="V" unicode="V" 
d="M420 700v-425l-144 -151l-96 143v433h-121v-456l165 -244h89l228 239v461h-121z" />
    <glyph glyph-name="W" unicode="W" 
d="M38 700v-522l120 -178h93l53 57l33 -57h94l130 134v566h-121v-513l-42 -46h-4l-34 57v237h-121v-266l-28 -27h-5l-47 70v488h-121z" />
    <glyph glyph-name="Wacute" unicode="&#x1e82;" 
d="M38 700v-522l120 -178h93l53 57l33 -57h94l130 134v566h-121v-513l-42 -46h-4l-34 57v237h-121v-266l-28 -27h-5l-47 70v488h-121zM205 740l231 111l-65 94l-208 -136z" />
    <glyph glyph-name="Wcircumflex" unicode="&#x174;" 
d="M38 700v-522l120 -178h93l53 57l33 -57h94l130 134v566h-121v-513l-42 -46h-4l-34 57v237h-121v-266l-28 -27h-5l-47 70v488h-121zM330 924h-59l-157 -119l58 -65l128 82l129 -82l57 65z" />
    <glyph glyph-name="Wdieresis" unicode="&#x1e84;" 
d="M38 700v-522l120 -178h93l53 57l33 -57h94l130 134v566h-121v-513l-42 -46h-4l-34 57v237h-121v-266l-28 -27h-5l-47 70v488h-121zM140 740v110h110v-110h-110zM350 740v110h110v-110h-110z" />
    <glyph glyph-name="Wgrave" unicode="&#x1e80;" 
d="M38 700v-522l120 -178h93l53 57l33 -57h94l130 134v566h-121v-513l-42 -46h-4l-34 57v237h-121v-266l-28 -27h-5l-47 70v488h-121zM395 733l42 69l-208 136l-65 -94z" />
    <glyph glyph-name="X" unicode="X" 
d="M401 700v-178l-105 -110h-48l-49 74v214h-121v-237l95 -139l-95 -97v-227h121v189l105 110h46l51 -71v-228h121v251l-95 139l95 97v213h-121z" />
    <glyph glyph-name="Y" unicode="Y" 
d="M420 700h121v-193l-181 -187v-320h-121v313l-181 269v118h121v-98l121 -180h2l118 123v155z" />
    <glyph glyph-name="Yacute" unicode="&#xdd;" 
d="M420 700h121v-193l-181 -187v-320h-121v313l-181 269v118h121v-98l121 -180h2l118 123v155zM205 740l231 111l-65 94l-208 -136z" />
    <glyph glyph-name="Ycircumflex" unicode="&#x176;" 
d="M420 700h121v-193l-181 -187v-320h-121v313l-181 269v118h121v-98l121 -180h2l118 123v155zM330 924h-59l-157 -119l58 -65l128 82l129 -82l57 65z" />
    <glyph glyph-name="Ydieresis" unicode="&#x178;" 
d="M420 700h121v-193l-181 -187v-320h-121v313l-181 269v118h121v-98l121 -180h2l118 123v155zM140 740v110h110v-110h-110zM350 740v110h110v-110h-110z" />
    <glyph glyph-name="Ygrave" unicode="&#x1ef2;" 
d="M420 700h121v-193l-181 -187v-320h-121v313l-181 269v118h121v-98l121 -180h2l118 123v155zM395 733l42 69l-208 136l-65 -94z" />
    <glyph glyph-name="Z" unicode="Z" 
d="M58 700v-113h363v-45l-98 -104l12 -8h-156v-112h25l-146 -152v-166h484v113h-363v18l175 181l-10 6h138v112h-10l70 75v195h-484z" />
    <glyph glyph-name="Zacute" unicode="&#x179;" 
d="M58 700v-113h363v-45l-98 -104l12 -8h-156v-112h25l-146 -152v-166h484v113h-363v18l175 181l-10 6h138v112h-10l70 75v195h-484zM205 740l231 111l-65 94l-208 -136z" />
    <glyph glyph-name="Zcaron" unicode="&#x17d;" 
d="M58 700v-113h363v-45l-98 -104l12 -8h-156v-112h25l-146 -152v-166h484v113h-363v18l175 181l-10 6h138v112h-10l70 75v195h-484zM330 740l156 119l-57 65l-129 -82l-128 82l-58 -65l157 -119h59z" />
    <glyph glyph-name="Zdotaccent" unicode="&#x17b;" 
d="M58 700v-113h363v-45l-98 -104l12 -8h-156v-112h25l-146 -152v-166h484v113h-363v18l175 181l-10 6h138v112h-10l70 75v195h-484zM230 740v140h140v-140h-140z" />
    <glyph glyph-name="a" unicode="a" 
d="M138 553v-111h283v-87h-202l-161 -168v-53l90 -134h218l55 33v-33h121v450l-70 103h-334zM183 156v2l81 83h153v-128h-215z" />
    <glyph glyph-name="aacute" unicode="&#xe1;" 
d="M138 553v-111h283v-87h-202l-161 -168v-53l90 -134h218l55 33v-33h121v450l-70 103h-334zM183 156v2l81 83h153v-128h-215zM215 613l231 111l-65 94l-208 -136z" />
    <glyph glyph-name="abreve" unicode="&#x103;" 
d="M138 553v-111h283v-87h-202l-161 -168v-53l90 -134h218l55 33v-33h121v450l-70 103h-334zM183 156v2l81 83h153v-128h-215zM109 725v81h130v-93h142v93h130v-81l-112 -112h-178z" />
    <glyph glyph-name="acircumflex" unicode="&#xe2;" 
d="M138 553v-111h283v-87h-202l-161 -168v-53l90 -134h218l55 33v-33h121v450l-70 103h-334zM183 156v2l81 83h153v-128h-215zM340 797h-59l-157 -119l58 -65l128 82l129 -82l57 65z" />
    <glyph glyph-name="adieresis" unicode="&#xe4;" 
d="M138 553v-111h283v-87h-202l-161 -168v-53l90 -134h218l55 33v-33h121v450l-70 103h-334zM183 156v2l81 83h153v-128h-215zM150 613v110h110v-110h-110zM360 613v110h110v-110h-110z" />
    <glyph glyph-name="agrave" unicode="&#xe0;" 
d="M138 553v-111h283v-87h-202l-161 -168v-53l90 -134h218l55 33v-33h121v450l-70 103h-334zM183 156v2l81 83h153v-128h-215zM405 606l42 69l-208 136l-65 -94z" />
    <glyph glyph-name="amacron" unicode="&#x101;" 
d="M138 553v-111h283v-87h-202l-161 -168v-53l90 -134h218l55 33v-33h121v450l-70 103h-334zM183 156v2l81 83h153v-128h-215zM461 613h-302v113h302v-113z" />
    <glyph glyph-name="aogonek" unicode="&#x105;" 
d="M138 553v-111h283v-87h-202l-161 -168v-53l90 -134h218l55 33v-33h121v450l-70 103h-334zM183 156v2l81 83h153v-128h-215zM542 -139h-100l100 139l-113 10l-87 -108v-61l80 -67h120v87z" />
    <glyph glyph-name="aring" unicode="&#xe5;" 
d="M138 553v-111h283v-87h-202l-161 -168v-53l90 -134h218l55 33v-33h121v450l-70 103h-334zM183 156v2l81 83h153v-128h-215zM260 846l-67 -68v-98l67 -67h98l69 67v98l-69 68h-98zM291 774h37l27 -28v-36l-27 -25h-37l-26 25v36z" />
    <glyph glyph-name="atilde" unicode="&#xe3;" 
d="M138 553v-111h283v-87h-202l-161 -168v-53l90 -134h218l55 33v-33h121v450l-70 103h-334zM183 156v2l81 83h153v-128h-215zM482 766l-86 -52l-184 49l-122 -73l48 -80l89 56l181 -53l122 73z" />
    <glyph glyph-name="ae" unicode="&#xe6;" 
d="M76 571v-112h171v-105h-90l-161 -167v-53l90 -134h184l24 49l33 -49h180l86 91l-64 94l-70 -72h-67l-29 43v85h60l181 189l-95 141h-180l-24 -25l-17 25h-212zM363 439l19 20h67l11 -16l-84 -89h-13v85zM116 156v2l89 83h42v-95l-21 -33h-82z" />
    <glyph glyph-name="b" unicode="b" 
d="M58 768v-768h121v33l56 -33h214l93 97v319l-91 136h-219l-53 -33v249h-121zM179 418l20 21h192l30 -44v-262l-19 -20h-223v305z" />
    <glyph glyph-name="c" unicode="c" 
d="M153 553h300l83 -123l-78 -81l-60 88h-191l-22 -23v-265l31 -46h192l68 69l58 -87l-82 -85h-300l-88 131v330z" />
    <glyph glyph-name="cacute" unicode="&#x107;" 
d="M153 553h300l83 -123l-78 -81l-60 88h-191l-22 -23v-265l31 -46h192l68 69l58 -87l-82 -85h-300l-88 131v330zM205 633l231 111l-65 94l-208 -136z" />
    <glyph glyph-name="ccaron" unicode="&#x10d;" 
d="M153 553h300l83 -123l-78 -81l-60 88h-191l-22 -23v-265l31 -46h192l68 69l58 -87l-82 -85h-300l-88 131v330zM330 633l156 119l-57 65l-129 -82l-128 82l-58 -65l157 -119h59z" />
    <glyph glyph-name="ccedilla" unicode="&#xe7;" 
d="M153 553h300l83 -123l-78 -81l-60 88h-191l-22 -23v-265l31 -46h192l68 69l58 -87l-82 -85h-300l-88 131v330zM230 -134h100l-100 139h120l80 -98v-61l-80 -66h-120v86z" />
    <glyph glyph-name="cdotaccent" unicode="&#x10b;" 
d="M153 553h300l83 -123l-78 -81l-60 88h-191l-22 -23v-265l31 -46h192l68 69l58 -87l-82 -85h-300l-88 131v330zM230 633v140h140v-140h-140z" />
    <glyph glyph-name="d" unicode="d" 
d="M426 768h121v-768h-121v33l-54 -33h-216l-92 135v320l92 97h216l54 -33v249zM185 156l29 -43h194l18 18v264l-29 44h-192l-20 -21v-262z" />
    <glyph glyph-name="eth" unicode="&#xf0;" 
d="M145 731l-35 -104l93 -29l-41 -38l86 -84l62 60l76 -74l11 -49l-95 45l-167 -66l-71 -190l70 -189l170 -73l168 73l64 192v102l-53 203l-100 104l58 60l-86 84l-72 -74zM222 97l-44 105l51 122l69 27l117 -55l8 -71l-43 -128l-76 -37z" />
    <glyph glyph-name="dcaron" unicode="&#x10f;" 
d="M426 768h121v-768h-121v33l-54 -33h-216l-92 135v320l92 97h216l54 -33v249zM185 156l29 -43h194l18 18v264l-29 44h-192l-20 -21v-262zM617 810l139 -17l-78 -232l-98 16z" />
    <glyph glyph-name="dcroat" unicode="&#x111;" 
d="M426 768h121v-768h-121v33l-54 -33h-216l-92 135v320l92 97h216l54 -33v249zM185 156l29 -43h194l18 18v264l-29 44h-192l-20 -21v-262zM602 588h-260v112h260v-112z" />
    <glyph glyph-name="e" unicode="e" 
d="M153 553l-89 -92v-331l87 -130h295l82 85l-70 88l-55 -57h-192l-32 47v72h183l177 182l-91 136h-295zM179 413l23 24h174l16 -23l-74 -78h-139v77z" />
    <glyph glyph-name="eacute" unicode="&#xe9;" 
d="M153 553l-89 -92v-331l87 -130h295l82 85l-70 88l-55 -57h-192l-32 47v72h183l177 182l-91 136h-295zM179 413l23 24h174l16 -23l-74 -78h-139v77zM203 621l231 111l-65 94l-208 -136z" />
    <glyph glyph-name="ecaron" unicode="&#x11b;" 
d="M153 553l-89 -92v-331l87 -130h295l82 85l-70 88l-55 -57h-192l-32 47v72h183l177 182l-91 136h-295zM179 413l23 24h174l16 -23l-74 -78h-139v77zM328 621l156 119l-57 65l-129 -82l-128 82l-58 -65l157 -119h59z" />
    <glyph glyph-name="ecircumflex" unicode="&#xea;" 
d="M153 553l-89 -92v-331l87 -130h295l82 85l-70 88l-55 -57h-192l-32 47v72h183l177 182l-91 136h-295zM179 413l23 24h174l16 -23l-74 -78h-139v77zM328 805h-59l-157 -119l58 -65l128 82l129 -82l57 65z" />
    <glyph glyph-name="edieresis" unicode="&#xeb;" 
d="M153 553l-89 -92v-331l87 -130h295l82 85l-70 88l-55 -57h-192l-32 47v72h183l177 182l-91 136h-295zM179 413l23 24h174l16 -23l-74 -78h-139v77zM138 621v110h110v-110h-110zM348 621v110h110v-110h-110z" />
    <glyph glyph-name="edotaccent" unicode="&#x117;" 
d="M153 553l-89 -92v-331l87 -130h295l82 85l-70 88l-55 -57h-192l-32 47v72h183l177 182l-91 136h-295zM179 413l23 24h174l16 -23l-74 -78h-139v77zM228 621v140h140v-140h-140z" />
    <glyph glyph-name="egrave" unicode="&#xe8;" 
d="M153 553l-89 -92v-331l87 -130h295l82 85l-70 88l-55 -57h-192l-32 47v72h183l177 182l-91 136h-295zM179 413l23 24h174l16 -23l-74 -78h-139v77zM393 614l42 69l-208 136l-65 -94z" />
    <glyph glyph-name="emacron" unicode="&#x113;" 
d="M153 553l-89 -92v-331l87 -130h295l82 85l-70 88l-55 -57h-192l-32 47v72h183l177 182l-91 136h-295zM179 413l23 24h174l16 -23l-74 -78h-139v77zM449 621h-302v113h302v-113z" />
    <glyph glyph-name="eogonek" unicode="&#x119;" 
d="M153 553l-89 -92v-331l87 -130h295l82 85l-70 88l-55 -57h-192l-32 47v72h183l177 182l-91 136h-295zM179 413l23 24h174l16 -23l-74 -78h-139v77zM358 -129h-100l100 139l-113 10l-87 -108v-61l80 -67h120v87z" />
    <glyph glyph-name="f" unicode="f" 
d="M243 700l-104 -106v-164h-80v-112h80v-318h121v318h161v112h-161v125l32 32h129l41 -60l80 82l-63 91h-236z" />
    <glyph glyph-name="g" unicode="g" 
d="M246 25h166l5 -7v-53l-68 -66h-118l-25 37v53zM196 402l32 34h161l29 -41v-50l-65 -40h-157v97zM364 191l175 108v251h-121v-32l-54 32h-183l-105 -110v-190l31 -20l-51 -49l75 -114l-51 -51v-112l93 -119h224l146 133v112l-70 109h-257l-15 27l24 25h139z" />
    <glyph glyph-name="gbreve" unicode="&#x11f;" 
d="M246 25h166l5 -7v-53l-68 -66h-118l-25 37v53zM196 402l32 34h161l29 -41v-50l-65 -40h-157v97zM364 191l175 108v251h-121v-32l-54 32h-183l-105 -110v-190l31 -20l-51 -49l75 -114l-51 -51v-112l93 -119h224l146 133v112l-70 109h-257l-15 27l24 25h139zM79 728v81h130
v-93h142v93h130v-81l-112 -112h-178z" />
    <glyph glyph-name="uni0123" unicode="&#x123;" 
d="M246 25h166l5 -7v-53l-68 -66h-118l-25 37v53zM196 402l32 34h161l29 -41v-50l-65 -40h-157v97zM364 191l175 108v251h-121v-32l-54 32h-183l-105 -110v-190l31 -20l-51 -49l75 -114l-51 -51v-112l93 -119h224l146 133v112l-70 109h-257l-15 27l24 25h139zM351 636v133
h-61v56l53 55l-63 67l-81 -81v-230h152z" />
    <glyph glyph-name="gdotaccent" unicode="&#x121;" 
d="M246 25h166l5 -7v-53l-68 -66h-118l-25 37v53zM196 402l32 34h161l29 -41v-50l-65 -40h-157v97zM364 191l175 108v251h-121v-32l-54 32h-183l-105 -110v-190l31 -20l-51 -49l75 -114l-51 -51v-112l93 -119h224l146 133v112l-70 109h-257l-15 27l24 25h139zM210 616v140
h140v-140h-140z" />
    <glyph glyph-name="h" unicode="h" 
d="M59 769h121v-251l54 33h215l93 -131v-420h-121v397l-29 42h-192l-20 -19v-420h-121v769z" />
    <glyph glyph-name="hbar" unicode="&#x127;" 
d="M59 769h121v-251l54 33h215l93 -131v-420h-121v397l-29 42h-192l-20 -19v-420h-121v769zM260 608h-260v112h260v-112z" />
    <glyph glyph-name="i" unicode="i" 
d="M101 570v-109h111l30 -44v-308h-183v-109h482v109h-183v329l-89 132h-168zM230 680v140h140v-140h-140z" />
    <glyph glyph-name="dotlessi" unicode="&#x131;" 
d="M101 570v-109h111l30 -44v-308h-183v-109h482v109h-183v329l-89 132h-168z" />
    <glyph glyph-name="iacute" unicode="&#xed;" 
d="M101 570v-109h111l30 -44v-308h-183v-109h482v109h-183v329l-89 132h-168zM205 680l231 111l-65 94l-208 -136z" />
    <glyph glyph-name="icircumflex" unicode="&#xee;" 
d="M101 570v-109h111l30 -44v-308h-183v-109h482v109h-183v329l-89 132h-168zM330 864h-59l-157 -119l58 -65l128 82l129 -82l57 65z" />
    <glyph glyph-name="idieresis" unicode="&#xef;" 
d="M101 570v-109h111l30 -44v-308h-183v-109h482v109h-183v329l-89 132h-168zM140 680v110h110v-110h-110zM350 680v110h110v-110h-110z" />
    <glyph glyph-name="i.loclTRK" 
d="M101 570v-109h111l30 -44v-308h-183v-109h482v109h-183v329l-89 132h-168zM230 680v140h140v-140h-140z" />
    <glyph glyph-name="igrave" unicode="&#xec;" 
d="M101 570v-109h111l30 -44v-308h-183v-109h482v109h-183v329l-89 132h-168zM395 673l42 69l-208 136l-65 -94z" />
    <glyph glyph-name="ij" unicode="&#x133;" 
d="M58 562h141v138h-141v-138zM401 562h141v138h-141v-138zM410 501v-439l-221 43v396h-121v-472l337 -85v-10l-95 -88h-161v-113h208l174 181v587h-121z" />
    <glyph glyph-name="imacron" unicode="&#x12b;" 
d="M101 570v-109h111l30 -44v-308h-183v-109h482v109h-183v329l-89 132h-168zM451 680h-302v113h302v-113z" />
    <glyph glyph-name="iogonek" unicode="&#x12f;" 
d="M101 570v-109h111l30 -44v-308h-183v-109h482v109h-183v329l-89 132h-168zM230 680v140h140v-140h-140zM360 -129h-100l100 139l-113 10l-87 -108v-61l80 -67h120v87z" />
    <glyph glyph-name="j" unicode="j" 
d="M221 560h258v-490l-173 -180h-146v110h100l101 106v344h-140v110zM290 690v140h140v-140h-140z" />
    <glyph glyph-name="uni0237" unicode="&#x237;" 
d="M221 560h258v-490l-173 -180h-146v110h100l101 106v344h-140v110z" />
    <glyph glyph-name="k" unicode="k" 
d="M59 748v-748h121v234l84 87l157 -229v-92h121v113l-197 292l176 178h-159l-182 -189v354h-121z" />
    <glyph glyph-name="uni0137" unicode="&#x137;" 
d="M59 748v-748h121v234l84 87l157 -229v-92h121v113l-197 292l176 178h-159l-182 -189v354h-121zM246 -326l156 204l-101 54l-124 -215z" />
    <glyph glyph-name="l" unicode="l" 
d="M78 748v-112h124v-503l90 -133h229v112h-170l-29 43v537l-95 56h-149z" />
    <glyph glyph-name="lacute" unicode="&#x13a;" 
d="M78 748v-112h124v-503l90 -133h229v112h-170l-29 43v537l-95 56h-149zM174 829l231 111l-65 94l-208 -136z" />
    <glyph glyph-name="lcaron" unicode="&#x13e;" 
d="M78 748v-112h124v-503l90 -133h229v112h-170l-29 43v537l-95 56h-149zM448 734l139 -17l-78 -232l-98 16z" />
    <glyph glyph-name="uni013C" unicode="&#x13c;" 
d="M78 748v-112h124v-503l90 -133h229v112h-170l-29 43v537l-95 56h-149zM304 -356l156 204l-101 54l-124 -215z" />
    <glyph glyph-name="lslash" unicode="&#x142;" 
d="M78 748v-112h124v-503l90 -133h229v112h-170l-29 43v537l-95 56h-149zM473 651l-433 -624l91 -63l433 624z" />
    <glyph glyph-name="m" unicode="m" 
d="M39 551v-551h121v418l18 21h34l29 -43v-119h121v141l18 21h33l28 -43v-396h121v418l-90 133h-56l-102 -62l-42 62h-58l-54 -33v33h-121z" />
    <glyph glyph-name="n" unicode="n" 
d="M59 551v-551h121v418l18 21h194l29 -43v-396h121v418l-90 133h-217l-55 -33v33h-121z" />
    <glyph glyph-name="nacute" unicode="&#x144;" 
d="M59 551v-551h121v418l18 21h194l29 -43v-396h121v418l-90 133h-217l-55 -33v33h-121zM249 620l231 111l-65 94l-208 -136z" />
    <glyph glyph-name="ncaron" unicode="&#x148;" 
d="M59 551v-551h121v418l18 21h194l29 -43v-396h121v418l-90 133h-217l-55 -33v33h-121zM374 620l156 119l-57 65l-129 -82l-128 82l-58 -65l157 -119h59z" />
    <glyph glyph-name="uni0146" unicode="&#x146;" 
d="M59 551v-551h121v418l18 21h194l29 -43v-396h121v418l-90 133h-217l-55 -33v33h-121zM246 -326l156 204l-101 54l-124 -215z" />
    <glyph glyph-name="ntilde" unicode="&#xf1;" 
d="M59 551v-551h121v418l18 21h194l29 -43v-396h121v418l-90 133h-217l-55 -33v33h-121zM516 773l-86 -52l-184 49l-122 -73l48 -80l89 56l181 -53l122 73z" />
    <glyph glyph-name="o" unicode="o" 
d="M152 551h301l90 -134v-322l-92 -95h-300l-91 134v322zM180 156l29 -43h194l18 19v264l-29 43h-193l-19 -21v-262z" />
    <glyph glyph-name="oacute" unicode="&#xf3;" 
d="M152 551h301l90 -134v-322l-92 -95h-300l-91 134v322zM180 156l29 -43h194l18 19v264l-29 43h-193l-19 -21v-262zM207 620l231 111l-65 94l-208 -136z" />
    <glyph glyph-name="ocircumflex" unicode="&#xf4;" 
d="M152 551h301l90 -134v-322l-92 -95h-300l-91 134v322zM180 156l29 -43h194l18 19v264l-29 43h-193l-19 -21v-262zM332 804h-59l-157 -119l58 -65l128 82l129 -82l57 65z" />
    <glyph glyph-name="odieresis" unicode="&#xf6;" 
d="M152 551h301l90 -134v-322l-92 -95h-300l-91 134v322zM180 156l29 -43h194l18 19v264l-29 43h-193l-19 -21v-262zM142 620v110h110v-110h-110zM352 620v110h110v-110h-110z" />
    <glyph glyph-name="ograve" unicode="&#xf2;" 
d="M152 551h301l90 -134v-322l-92 -95h-300l-91 134v322zM180 156l29 -43h194l18 19v264l-29 43h-193l-19 -21v-262zM397 613l42 69l-208 136l-65 -94z" />
    <glyph glyph-name="ohungarumlaut" unicode="&#x151;" 
d="M152 551h301l90 -134v-322l-92 -95h-300l-91 134v322zM180 156l29 -43h194l18 19v264l-29 43h-193l-19 -21v-262zM215 620l156 204l-101 54l-124 -215zM389 620l179 183l-93 66l-149 -199z" />
    <glyph glyph-name="oslash" unicode="&#xf8;" 
d="M152 551h301l90 -134v-322l-92 -95h-300l-91 134v322zM180 156l29 -43h194l18 19v264l-29 43h-193l-19 -21v-262zM412 802l105 -35l-302 -889l-105 35z" />
    <glyph glyph-name="otilde" unicode="&#xf5;" 
d="M152 551h301l90 -134v-322l-92 -95h-300l-91 134v322zM180 156l29 -43h194l18 19v264l-29 43h-193l-19 -21v-262zM474 773l-86 -52l-184 49l-122 -73l48 -80l89 56l181 -53l122 73z" />
    <glyph glyph-name="oe" unicode="&#x153;" 
d="M87 552l-92 -95v-322l91 -135h182l37 38l25 -38h177l87 91l-65 94l-70 -72h-69l-30 43v66h63l182 188l-96 142h-177l-37 -38l-25 38h-183zM116 156v263l19 20h75l30 -43v-264l-19 -19h-75zM360 419l20 20h69l11 -16l-84 -88h-16v84z" />
    <glyph glyph-name="p" unicode="p" 
d="M233 551l-53 -33v33h-121v-767h121v248l55 -32h214l92 95v322l-88 134h-220zM180 156v263l19 19h192l29 -44v-263l-18 -19h-193z" />
    <glyph glyph-name="thorn" unicode="&#xfe;" 
d="M59 770v-981h120v244l57 -33h212l93 97v320l-91 135h-217l-54 -33v251h-120zM179 419l20 20h192l30 -44v-262l-19 -20h-223v306z" />
    <glyph glyph-name="q" unicode="q" 
d="M151 551l-92 -95v-322l90 -134h216l55 32v-248h121v766h-121v-32l-56 33h-213zM180 157v262l19 19h191l30 -43v-263l-20 -20h-191z" />
    <glyph glyph-name="r" unicode="r" 
d="M50 551v-112h72l29 -43v-284h-101v-112h363v112h-142v293l32 34h120l34 -53l93 63l-68 102h-227l-49 -51l-87 51h-69z" />
    <glyph glyph-name="racute" unicode="&#x155;" 
d="M50 551v-112h72l29 -43v-284h-101v-112h363v112h-142v293l32 34h120l34 -53l93 63l-68 102h-227l-49 -51l-87 51h-69zM274 620l231 111l-65 94l-208 -136z" />
    <glyph glyph-name="rcaron" unicode="&#x159;" 
d="M50 551v-112h72l29 -43v-284h-101v-112h363v112h-142v293l32 34h120l34 -53l93 63l-68 102h-227l-49 -51l-87 51h-69zM399 620l156 119l-57 65l-129 -82l-128 82l-58 -65l157 -119h59z" />
    <glyph glyph-name="s" unicode="s" 
d="M161 558h292l68 -99l-78 -81l-48 70h-184l-18 -16v-46l28 -41h234l78 -116v-141l-79 -88h-333l-54 84l78 80l35 -51h222l10 11v81l-19 28h-234l-86 129v110z" />
    <glyph glyph-name="sacute" unicode="&#x15b;" 
d="M161 558h292l68 -99l-78 -81l-48 70h-184l-18 -16v-46l28 -41h234l78 -116v-141l-79 -88h-333l-54 84l78 80l35 -51h222l10 11v81l-19 28h-234l-86 129v110zM208 620l231 111l-65 94l-208 -136z" />
    <glyph glyph-name="scaron" unicode="&#x161;" 
d="M161 558h292l68 -99l-78 -81l-48 70h-184l-18 -16v-46l28 -41h234l78 -116v-141l-79 -88h-333l-54 84l78 80l35 -51h222l10 11v81l-19 28h-234l-86 129v110zM333 620l156 119l-57 65l-129 -82l-128 82l-58 -65l157 -119h59z" />
    <glyph glyph-name="scedilla" unicode="&#x15f;" 
d="M161 558h292l68 -99l-78 -81l-48 70h-184l-18 -16v-46l28 -41h234l78 -116v-141l-79 -88h-333l-54 84l78 80l35 -51h222l10 11v81l-19 28h-234l-86 129v110zM216 -134h100l-100 139h120l80 -98v-61l-80 -66h-120v86z" />
    <glyph glyph-name="uni0219" unicode="&#x219;" 
d="M161 558h292l68 -99l-78 -81l-48 70h-184l-18 -16v-46l28 -41h234l78 -116v-141l-79 -88h-333l-54 84l78 80l35 -51h222l10 11v81l-19 28h-234l-86 129v110zM246 -326l156 204l-101 54l-124 -215z" />
    <glyph glyph-name="germandbls" unicode="&#xdf;" 
d="M237 755l-179 -193v-562h121v524l88 96l79 -49l-137 -124v-110h155l56 -84v-116l-22 -24h-113v-113h160l96 100v174l-118 176h-53l82 62v112z" />
    <glyph glyph-name="t" unicode="t" 
d="M156 748h121v-196h162v-113h-162v-283l28 -43h84l71 71l64 -93l-85 -91h-193l-90 132v307h-80v113h80v196z" />
    <glyph glyph-name="tcaron" unicode="&#x165;" 
d="M156 748h121v-196h162v-113h-162v-283l28 -43h84l71 71l64 -93l-85 -91h-193l-90 132v307h-80v113h80v196zM412 888l139 -17l-78 -232l-98 16z" />
    <glyph glyph-name="uni021B" unicode="&#x21b;" 
d="M156 748h121v-196h162v-113h-162v-283l28 -43h84l71 71l64 -93l-85 -91h-193l-90 132v307h-80v113h80v196zM290 -326l156 204l-101 54l-124 -215z" />
    <glyph glyph-name="u" unicode="u" 
d="M420 551v-419l-18 -19h-193l-29 43v395h-121v-417l91 -134h216l56 33v-33h119v551h-121z" />
    <glyph glyph-name="uacute" unicode="&#xfa;" 
d="M420 551v-419l-18 -19h-193l-29 43v395h-121v-417l91 -134h216l56 33v-33h119v551h-121zM205 620l231 111l-65 94l-208 -136z" />
    <glyph glyph-name="ucircumflex" unicode="&#xfb;" 
d="M420 551v-419l-18 -19h-193l-29 43v395h-121v-417l91 -134h216l56 33v-33h119v551h-121zM330 804h-59l-157 -119l58 -65l128 82l129 -82l57 65z" />
    <glyph glyph-name="udieresis" unicode="&#xfc;" 
d="M420 551v-419l-18 -19h-193l-29 43v395h-121v-417l91 -134h216l56 33v-33h119v551h-121zM140 620v110h110v-110h-110zM350 620v110h110v-110h-110z" />
    <glyph glyph-name="ugrave" unicode="&#xf9;" 
d="M420 551v-419l-18 -19h-193l-29 43v395h-121v-417l91 -134h216l56 33v-33h119v551h-121zM395 613l42 69l-208 136l-65 -94z" />
    <glyph glyph-name="uhungarumlaut" unicode="&#x171;" 
d="M420 551v-419l-18 -19h-193l-29 43v395h-121v-417l91 -134h216l56 33v-33h119v551h-121zM213 620l156 204l-101 54l-124 -215zM387 620l179 183l-93 66l-149 -199z" />
    <glyph glyph-name="umacron" unicode="&#x16b;" 
d="M420 551v-419l-18 -19h-193l-29 43v395h-121v-417l91 -134h216l56 33v-33h119v551h-121zM451 620h-302v113h302v-113z" />
    <glyph glyph-name="uogonek" unicode="&#x173;" 
d="M420 551v-419l-18 -19h-193l-29 43v395h-121v-417l91 -134h216l56 33v-33h119v551h-121zM541 -139h-100l100 139l-113 10l-87 -108v-61l80 -67h120v87z" />
    <glyph glyph-name="uring" unicode="&#x16f;" 
d="M420 551v-419l-18 -19h-193l-29 43v395h-121v-417l91 -134h216l56 33v-33h119v551h-121zM250 853l-67 -68v-98l67 -67h98l69 67v98l-69 68h-98zM281 781h37l27 -28v-36l-27 -25h-37l-26 25v36z" />
    <glyph glyph-name="v" unicode="v" 
d="M421 552v-277l-145 -151l-96 143v285h-121v-308l164 -244h89l230 238v314h-121z" />
    <glyph glyph-name="w" unicode="w" 
d="M462 551v-333l-70 -75h-3l-31 46v362h-120v-384l-26 -29h-4l-68 92v321h-121v-343l141 -208h90l57 59l32 -59h92l151 156v395h-120z" />
    <glyph glyph-name="wacute" unicode="&#x1e83;" 
d="M462 551v-333l-70 -75h-3l-31 46v362h-120v-384l-26 -29h-4l-68 92v321h-121v-343l141 -208h90l57 59l32 -59h92l151 156v395h-120zM205 620l231 111l-65 94l-208 -136z" />
    <glyph glyph-name="wcircumflex" unicode="&#x175;" 
d="M462 551v-333l-70 -75h-3l-31 46v362h-120v-384l-26 -29h-4l-68 92v321h-121v-343l141 -208h90l57 59l32 -59h92l151 156v395h-120zM330 804h-59l-157 -119l58 -65l128 82l129 -82l57 65z" />
    <glyph glyph-name="wdieresis" unicode="&#x1e85;" 
d="M462 551v-333l-70 -75h-3l-31 46v362h-120v-384l-26 -29h-4l-68 92v321h-121v-343l141 -208h90l57 59l32 -59h92l151 156v395h-120zM140 620v110h110v-110h-110zM350 620v110h110v-110h-110z" />
    <glyph glyph-name="wgrave" unicode="&#x1e81;" 
d="M462 551v-333l-70 -75h-3l-31 46v362h-120v-384l-26 -29h-4l-68 92v321h-121v-343l141 -208h90l57 59l32 -59h92l151 156v395h-120zM395 613l42 69l-208 136l-65 -94z" />
    <glyph glyph-name="x" unicode="x" 
d="M421 551v-97l-107 -110h-87l-48 72v135h-121v-157l90 -141v-2l-90 -94v-157h121v122l105 109h88l49 -72v-159h121v181l-94 139l94 96v135h-121z" />
    <glyph glyph-name="y" unicode="y" 
d="M420 551v-439h-191l-49 71v368h-121v-390l109 -161h252v0l-103 -104h-258v-113h308l174 181v587h-121z" />
    <glyph glyph-name="yacute" unicode="&#xfd;" 
d="M420 551v-439h-191l-49 71v368h-121v-390l109 -161h252v0l-103 -104h-258v-113h308l174 181v587h-121zM205 611l231 111l-65 94l-208 -136z" />
    <glyph glyph-name="ycircumflex" unicode="&#x177;" 
d="M420 551v-439h-191l-49 71v368h-121v-390l109 -161h252v0l-103 -104h-258v-113h308l174 181v587h-121zM330 795h-59l-157 -119l58 -65l128 82l129 -82l57 65z" />
    <glyph glyph-name="ydieresis" unicode="&#xff;" 
d="M420 551v-439h-191l-49 71v368h-121v-390l109 -161h252v0l-103 -104h-258v-113h308l174 181v587h-121zM140 611v110h110v-110h-110zM350 611v110h110v-110h-110z" />
    <glyph glyph-name="ygrave" unicode="&#x1ef3;" 
d="M420 551v-439h-191l-49 71v368h-121v-390l109 -161h252v0l-103 -104h-258v-113h308l174 181v587h-121zM395 604l42 69l-208 136l-65 -94z" />
    <glyph glyph-name="z" unicode="z" 
d="M69 551v-112h322v-4l-322 -334v-101h462v113h-324l324 337v101h-462z" />
    <glyph glyph-name="zacute" unicode="&#x17a;" 
d="M69 551v-112h322v-4l-322 -334v-101h462v113h-324l324 337v101h-462zM205 611l231 111l-65 94l-208 -136z" />
    <glyph glyph-name="zcaron" unicode="&#x17e;" 
d="M69 551v-112h322v-4l-322 -334v-101h462v113h-324l324 337v101h-462zM330 611l156 119l-57 65l-129 -82l-128 82l-58 -65l157 -119h59z" />
    <glyph glyph-name="zdotaccent" unicode="&#x17c;" 
d="M69 551v-112h322v-4l-322 -334v-101h462v113h-324l324 337v101h-462zM230 611v140h140v-140h-140z" />
    <glyph glyph-name="ordfeminine" unicode="&#xaa;" 
d="M138 553v-111h283v-87h-202l-161 -168v-53l90 -134h218l55 33v-33h121v450l-70 103h-334zM183 156v2l81 83h153v-128h-215z" />
    <glyph glyph-name="ordmasculine" unicode="&#xba;" 
d="M152 551h301l90 -134v-322l-92 -95h-300l-91 134v322zM180 156l29 -43h194l18 19v264l-29 43h-193l-19 -21v-262z" />
    <glyph glyph-name="uni0394" unicode="&#x394;" 
d="M363 700h-126l-198 -700h526zM308 530l121 -419h-255l119 419h15z" />
    <glyph glyph-name="uni03BC" unicode="&#x3bc;" 
d="M524 551v-436l37 -115h-103l-16 31l-30 -31h-194l-55 32v-248h-121v767h121v-395l29 -44h193l18 19v420h121z" />
    <glyph glyph-name="pi" unicode="&#x3c0;" 
d="M580 555h-560v-114h79v-441h112v441h179v-284l70 -157h117l-74 161v280h77v114z" />
    <glyph glyph-name="zero" unicode="0" 
d="M152 720l-93 -95v-491l91 -134h300l91 96v491l-89 133h-300zM180 587l18 20h193l29 -43v-14l-240 -249v286zM180 154v6l240 250v-277l-19 -20h-192z" />
    <glyph glyph-name="one" unicode="1" 
d="M252 720l-185 -190l65 -97l108 113v-433h-181v-113h482v113h-179v607h-110z" />
    <glyph glyph-name="two" unicode="2" 
d="M155 720l-99 -101l64 -93l82 81h181l49 -73l-370 -380v-154h482v113h-362v4l362 375v99l-86 129h-303z" />
    <glyph glyph-name="three" unicode="3" 
d="M58 720v-113h328l-176 -181v-89h153l59 -85v-115l-25 -24h-339v-113h389l95 100v174l-104 156h-68l172 178v112h-484z" />
    <glyph glyph-name="four" unicode="4" 
d="M357 720l-331 -342l107 -157h260v-221h121v221h60v113h-60v386h-157zM169 365l224 230v-261h-203z" />
    <glyph glyph-name="five" unicode="5" 
d="M58 720v-243l59 -87h245l59 -84v-169l-25 -25h-338v-112h389l95 99v228l-121 176h-238l-4 10v94h343v113h-464z" />
    <glyph glyph-name="six" unicode="6" 
d="M151 721l-92 -96v-489l80 -136h276l126 130v222l-53 78h-266l-42 -43v201l18 20h262v113h-309zM180 157v70l89 90h151v-150l-52 -54h-158z" />
    <glyph glyph-name="seven" unicode="7" 
d="M59 720v-113h361v-8l-282 -288v-311h121v274l282 288v158h-482z" />
    <glyph glyph-name="eight" unicode="8" 
d="M220 720l-161 -168v-91l79 -117h6l-85 -83v-127l91 -134h266l125 132v114l-84 125l84 88v140l-80 121h-241zM180 483v34l88 90h131l21 -30v-83l-55 -54h-157zM180 156v68l98 103h72l70 -103v-57l-55 -54h-156z" />
    <glyph glyph-name="nine" unicode="9" 
d="M120 720l-61 -63v-168l116 -172h245v-121l-72 -83h-249v-113h300l142 160v386l-116 174h-305zM180 512v95h183l57 -84v-93h-186z" />
    <glyph glyph-name="zero.dnom" 
d="M226 360l-47 -47v-246l46 -67h150l45 48v246l-44 66h-150zM240 294l9 10h96l15 -22v-7l-120 -124v143zM240 77v3l120 125v-138l-10 -10h-96z" />
    <glyph glyph-name="one.dnom" 
d="M276 360l-93 -95l33 -48l54 56v-216h-91v-57h241v57h-89v303h-55z" />
    <glyph glyph-name="two.dnom" 
d="M228 360l-50 -50l32 -47l41 41h91l24 -37l-185 -190v-77h241v57h-181v2l181 187v50l-43 64h-151z" />
    <glyph glyph-name="three.dnom" 
d="M179 360v-56h164l-88 -91v-44h77l29 -43v-57l-12 -12h-170v-57h195l47 50v87l-52 78h-34l86 89v56h-242z" />
    <glyph glyph-name="four.dnom" 
d="M329 360l-166 -171l54 -78h130v-111h60v111h30v56h-30v193h-78zM235 183l112 115v-131h-102z" />
    <glyph glyph-name="five.dnom" 
d="M179 360v-121l30 -44h122l30 -42v-84l-13 -13h-169v-56h195l47 50v114l-60 88h-119l-2 5v47h171v56h-232z" />
    <glyph glyph-name="six.dnom" 
d="M225 361l-46 -48v-245l40 -68h138l63 65v111l-26 39h-133l-21 -21v100l9 10h131v57h-155zM240 79v35l44 45h76v-75l-26 -27h-79z" />
    <glyph glyph-name="seven.dnom" 
d="M179 360v-56h181v-4l-141 -144v-156h60v137l141 144v79h-241z" />
    <glyph glyph-name="eight.dnom" 
d="M260 360l-81 -84v-45l40 -59h3l-43 -41v-64l46 -67h133l62 66v57l-42 63l42 44v70l-40 60h-120zM240 242v17l44 45h65l11 -15v-42l-28 -27h-78zM240 78v34l49 52h36l35 -52v-28l-28 -27h-78z" />
    <glyph glyph-name="nine.dnom" 
d="M210 360l-31 -31v-84l58 -86h123v-61l-36 -41h-125v-57h150l71 80v193l-58 87h-152zM240 256v48h91l29 -42v-47h-93z" />
    <glyph glyph-name="zero.numr" 
d="M226 720l-47 -47v-246l46 -67h150l45 48v246l-44 66h-150zM240 654l9 10h96l15 -22v-7l-120 -124v143zM240 437v3l120 125v-138l-10 -10h-96z" />
    <glyph glyph-name="one.numr" 
d="M276 720l-93 -95l33 -48l54 56v-216h-91v-57h241v57h-89v303h-55z" />
    <glyph glyph-name="two.numr" 
d="M228 720l-50 -50l32 -47l41 41h91l24 -37l-185 -190v-77h241v57h-181v2l181 187v50l-43 64h-151z" />
    <glyph glyph-name="three.numr" 
d="M179 720v-56h164l-88 -91v-44h77l29 -43v-57l-12 -12h-170v-57h195l47 50v87l-52 78h-34l86 89v56h-242z" />
    <glyph glyph-name="four.numr" 
d="M329 720l-166 -171l54 -78h130v-111h60v111h30v56h-30v193h-78zM235 543l112 115v-131h-102z" />
    <glyph glyph-name="five.numr" 
d="M179 720v-121l30 -44h122l30 -42v-84l-13 -13h-169v-56h195l47 50v114l-60 88h-119l-2 5v47h171v56h-232z" />
    <glyph glyph-name="six.numr" 
d="M225 722l-46 -48v-245l40 -68h138l63 65v111l-26 39h-133l-21 -21v100l9 10h131v57h-155zM240 440v35l44 45h76v-75l-26 -27h-79z" />
    <glyph glyph-name="seven.numr" 
d="M179 720v-56h181v-4l-141 -144v-156h60v137l141 144v79h-241z" />
    <glyph glyph-name="eight.numr" 
d="M260 720l-81 -84v-45l40 -59h3l-43 -41v-64l46 -67h133l62 66v57l-42 63l42 44v70l-40 60h-120zM240 602v17l44 45h65l11 -15v-42l-28 -27h-78zM240 438v34l49 52h36l35 -52v-28l-28 -27h-78z" />
    <glyph glyph-name="nine.numr" 
d="M210 720l-31 -31v-84l58 -86h123v-61l-36 -41h-125v-57h150l71 80v193l-58 87h-152zM240 616v48h91l29 -42v-47h-93z" />
    <glyph glyph-name="fraction" unicode="&#x2044;" 
d="M46 148l537 257l-28 47l-538 -257z" />
    <glyph glyph-name="uni215F" unicode="&#x215f;" 
d="M46 148l537 257l-28 47l-538 -257zM156 780l-93 -95l33 -48l54 56v-216h-91v-57h241v57h-89v303h-55z" />
    <glyph glyph-name="onehalf" unicode="&#xbd;" 
d="M46 148l537 257l-28 47l-538 -257zM156 780l-93 -95l33 -48l54 56v-216h-91v-57h241v57h-89v303h-55zM308 200l-50 -50l32 -47l41 41h91l24 -37l-185 -190v-77h241v57h-181v2l181 187v50l-43 64h-151z" />
    <glyph glyph-name="uni2153" unicode="&#x2153;" 
d="M46 148l537 257l-28 47l-538 -257zM156 780l-93 -95l33 -48l54 56v-216h-91v-57h241v57h-89v303h-55zM259 200v-56h164l-88 -91v-44h77l29 -43v-57l-12 -12h-170v-57h195l47 50v87l-52 78h-34l86 89v56h-242z" />
    <glyph glyph-name="uni2154" unicode="&#x2154;" 
d="M46 148l537 257l-28 47l-538 -257zM59 779v-56h164l-88 -91v-44h77l29 -43v-57l-12 -12h-170v-57h195l47 50v87l-52 78h-34l86 89v56h-242zM409 200l-166 -171l54 -78h130v-111h60v111h30v56h-30v193h-78zM315 23l112 115v-131h-102z" />
    <glyph glyph-name="onequarter" unicode="&#xbc;" 
d="M46 148l537 257l-28 47l-538 -257zM156 780l-93 -95l33 -48l54 56v-216h-91v-57h241v57h-89v303h-55zM409 200l-166 -171l54 -78h130v-111h60v111h30v56h-30v193h-78zM315 23l112 115v-131h-102z" />
    <glyph glyph-name="threequarters" unicode="&#xbe;" 
d="M46 148l537 257l-28 47l-538 -257zM59 779v-56h164l-88 -91v-44h77l29 -43v-57l-12 -12h-170v-57h195l47 50v87l-52 78h-34l86 89v56h-242zM409 200l-166 -171l54 -78h130v-111h60v111h30v56h-30v193h-78zM315 23l112 115v-131h-102z" />
    <glyph glyph-name="oneeighth" unicode="&#x215b;" 
d="M46 148l537 257l-28 47l-538 -257zM156 780l-93 -95l33 -48l54 56v-216h-91v-57h241v57h-89v303h-55zM340 196l-81 -84v-45l40 -59h3l-43 -41v-64l46 -67h133l62 66v57l-42 63l42 44v70l-40 60h-120zM320 78v17l44 45h65l11 -15v-42l-28 -27h-78zM320 -86v34l49 52h36
l35 -52v-28l-28 -27h-78z" />
    <glyph glyph-name="threeeighths" unicode="&#x215c;" 
d="M46 148l537 257l-28 47l-538 -257zM59 779v-56h164l-88 -91v-44h77l29 -43v-57l-12 -12h-170v-57h195l47 50v87l-52 78h-34l86 89v56h-242zM409 200l-166 -171l54 -78h130v-111h60v111h30v56h-30v193h-78zM315 23l112 115v-131h-102z" />
    <glyph glyph-name="fiveeighths" unicode="&#x215d;" 
d="M46 148l537 257l-28 47l-538 -257zM59 780v-121l30 -44h122l30 -42v-84l-13 -13h-169v-56h195l47 50v114l-60 88h-119l-2 5v47h171v56h-232zM340 196l-81 -84v-45l40 -59h3l-43 -41v-64l46 -67h133l62 66v57l-42 63l42 44v70l-40 60h-120zM320 78v17l44 45h65l11 -15v-42
l-28 -27h-78zM320 -86v34l49 52h36l35 -52v-28l-28 -27h-78z" />
    <glyph glyph-name="seveneighths" unicode="&#x215e;" 
d="M46 148l537 257l-28 47l-538 -257zM59 780v-56h181v-4l-141 -144v-156h60v137l141 144v79h-241zM340 196l-81 -84v-45l40 -59h3l-43 -41v-64l46 -67h133l62 66v57l-42 63l42 44v70l-40 60h-120zM320 78v17l44 45h65l11 -15v-42l-28 -27h-78zM320 -86v34l49 52h36l35 -52
v-28l-28 -27h-78z" />
    <glyph glyph-name="uni2080" unicode="&#x2080;" 
d="M226 360l-47 -47v-246l46 -67h150l45 48v246l-44 66h-150zM240 294l9 10h96l15 -22v-7l-120 -124v143zM240 77v3l120 125v-138l-10 -10h-96z" />
    <glyph glyph-name="uni2081" unicode="&#x2081;" 
d="M276 360l-93 -95l33 -48l54 56v-216h-91v-57h241v57h-89v303h-55z" />
    <glyph glyph-name="uni2082" unicode="&#x2082;" 
d="M228 360l-50 -50l32 -47l41 41h91l24 -37l-185 -190v-77h241v57h-181v2l181 187v50l-43 64h-151z" />
    <glyph glyph-name="uni2083" unicode="&#x2083;" 
d="M179 360v-56h164l-88 -91v-44h77l29 -43v-57l-12 -12h-170v-57h195l47 50v87l-52 78h-34l86 89v56h-242z" />
    <glyph glyph-name="uni2084" unicode="&#x2084;" 
d="M329 360l-166 -171l54 -78h130v-111h60v111h30v56h-30v193h-78zM235 183l112 115v-131h-102z" />
    <glyph glyph-name="uni2085" unicode="&#x2085;" 
d="M179 360v-121l30 -44h122l30 -42v-84l-13 -13h-169v-56h195l47 50v114l-60 88h-119l-2 5v47h171v56h-232z" />
    <glyph glyph-name="uni2086" unicode="&#x2086;" 
d="M225 361l-46 -48v-245l40 -68h138l63 65v111l-26 39h-133l-21 -21v100l9 10h131v57h-155zM240 79v35l44 45h76v-75l-26 -27h-79z" />
    <glyph glyph-name="uni2087" unicode="&#x2087;" 
d="M179 360v-56h181v-4l-141 -144v-156h60v137l141 144v79h-241z" />
    <glyph glyph-name="uni2088" unicode="&#x2088;" 
d="M260 360l-81 -84v-45l40 -59h3l-43 -41v-64l46 -67h133l62 66v57l-42 63l42 44v70l-40 60h-120zM240 242v17l44 45h65l11 -15v-42l-28 -27h-78zM240 78v34l49 52h36l35 -52v-28l-28 -27h-78z" />
    <glyph glyph-name="uni2089" unicode="&#x2089;" 
d="M210 360l-31 -31v-84l58 -86h123v-61l-36 -41h-125v-57h150l71 80v193l-58 87h-152zM240 256v48h91l29 -42v-47h-93z" />
    <glyph glyph-name="uni2070" unicode="&#x2070;" 
d="M226 720l-47 -47v-246l46 -67h150l45 48v246l-44 66h-150zM240 654l9 10h96l15 -22v-7l-120 -124v143zM240 437v3l120 125v-138l-10 -10h-96z" />
    <glyph glyph-name="uni00B9" unicode="&#xb9;" 
d="M276 720l-93 -95l33 -48l54 56v-216h-91v-57h241v57h-89v303h-55z" />
    <glyph glyph-name="uni00B2" unicode="&#xb2;" 
d="M228 720l-50 -50l32 -47l41 41h91l24 -37l-185 -190v-77h241v57h-181v2l181 187v50l-43 64h-151z" />
    <glyph glyph-name="uni00B3" unicode="&#xb3;" 
d="M179 720v-56h164l-88 -91v-44h77l29 -43v-57l-12 -12h-170v-57h195l47 50v87l-52 78h-34l86 89v56h-242z" />
    <glyph glyph-name="uni2074" unicode="&#x2074;" 
d="M329 720l-166 -171l54 -78h130v-111h60v111h30v56h-30v193h-78zM235 543l112 115v-131h-102z" />
    <glyph glyph-name="uni2075" unicode="&#x2075;" 
d="M179 720v-121l30 -44h122l30 -42v-84l-13 -13h-169v-56h195l47 50v114l-60 88h-119l-2 5v47h171v56h-232z" />
    <glyph glyph-name="uni2076" unicode="&#x2076;" 
d="M225 722l-46 -48v-245l40 -68h138l63 65v111l-26 39h-133l-21 -21v100l9 10h131v57h-155zM240 440v35l44 45h76v-75l-26 -27h-79z" />
    <glyph glyph-name="uni2077" unicode="&#x2077;" 
d="M179 720v-56h181v-4l-141 -144v-156h60v137l141 144v79h-241z" />
    <glyph glyph-name="uni2078" unicode="&#x2078;" 
d="M260 720l-81 -84v-45l40 -59h3l-43 -41v-64l46 -67h133l62 66v57l-42 63l42 44v70l-40 60h-120zM240 602v17l44 45h65l11 -15v-42l-28 -27h-78zM240 438v34l49 52h36l35 -52v-28l-28 -27h-78z" />
    <glyph glyph-name="uni2079" unicode="&#x2079;" 
d="M210 720l-31 -31v-84l58 -86h123v-61l-36 -41h-125v-57h150l71 80v193l-58 87h-152zM240 616v48h91l29 -42v-47h-93z" />
    <glyph glyph-name="zerowidthnobreakspace" unicode="&#xfeff;" horiz-adv-x="0" 
 />
    <glyph glyph-name="CR" unicode="&#xd;" 
 />
    <glyph glyph-name="space" unicode=" " 
 />
    <glyph glyph-name="uni00A0" unicode="&#xa0;" 
 />
    <glyph glyph-name="hyphen_greater.liga" 
d="M276 244h-658v112h658v-112zM72 628l309 -298v-60l-311 -300l-76 81l256 249l-257 246z" />
    <glyph glyph-name="period_period.liga" 
d="M-297 0v196h196v-196h-196zM101 0v196h196v-196h-196z" />
    <glyph glyph-name="period_period_period.liga" 
d="M-798 0v196h196v-196h-196zM2 0v196h196v-196h-196zM-400 0v196h196v-196h-196z" />
    <glyph glyph-name="colon_colon.liga" 
d="M-288 585h182v-182h-182v182zM-288 201h182v-182h-182v182zM103 585h182v-182h-182v182zM103 201h182v-182h-182v182z" />
    <glyph glyph-name="colon_colon_colon.liga" 
d="M0 585h182v-182h-182v182zM0 201h182v-182h-182v182zM-780 585h182v-182h-182v182zM-780 201h182v-182h-182v182zM-393 585h182v-182h-182v182zM-393 201h182v-182h-182v182z" />
    <glyph glyph-name="exclam_equal.liga" 
d="M-344 447h688v-121h-688v121zM-344 222h688v-121h-688v121zM172 784l100 -48l-444 -922l-101 48z" />
    <glyph glyph-name="exclam_equal_equal.liga" 
d="M-978 364h1356v-113h-1356v113zM-978 149h1356v-113h-1356v113zM-978 579h1356v-113h-1356v113zM-188 802l105 -35l-329 -969l-105 35z" />
    <glyph glyph-name="question_period.liga" 
d="M-312 711l-137 -143l62 -96l123 126h191l55 -82l-206 -213v-119h122v84l227 236l-137 207h-300zM-234 -31h144v132h-144v-132zM142 0v196h196v-196h-196z" />
    <glyph glyph-name="asterisk_asterisk.liga" 
d="M-319 540v-130l-123 40l-39 -114l124 -40l-76 -105l97 -71l76 105l76 -105l98 71l-75 105l122 40l-36 114l-124 -40v130h-120zM202 540v-130l-123 40l-39 -114l124 -40l-76 -105l97 -71l76 105l76 -105l98 71l-75 105l122 40l-36 114l-124 -40v130h-120z" />
    <glyph glyph-name="asterisk_slash.liga" 
d="M-251 540v-130l-123 40l-39 -114l124 -40l-76 -105l97 -71l76 105l76 -105l98 71l-75 105l122 40l-36 114l-124 -40v130h-120zM301 802l105 -35l-329 -969l-105 35z" />
    <glyph glyph-name="slash_asterisk.liga" 
d="M-91 802l105 -35l-329 -969l-105 35zM149 540v-130l-123 40l-39 -114l124 -40l-76 -105l97 -71l76 105l76 -105l98 71l-75 105l122 40l-36 114l-124 -40v130h-120z" />
    <glyph glyph-name="slash_equal.liga" 
d="M-412 464h412v-113h-412v113zM-492 239h492v-113h-492v113zM-338 802l105 -35l-329 -969l-105 35zM0 464h452v-113h-452v113zM0 239h452v-113h-452v113z" />
    <glyph glyph-name="slash_slash.liga" 
d="M-88 832l105 -35l-329 -969l-105 35zM312 802l105 -35l-329 -969l-105 35z" />
    <glyph glyph-name="backslash_backslash.liga" 
d="M88 832l329 -969l-105 -35l-329 969zM-312 802l329 -969l-105 -35l-329 969z" />
    <glyph glyph-name="period" unicode="." 
d="M202 0v196h196v-196h-196z" />
    <glyph glyph-name="comma" unicode="," 
d="M209 173v-173h61v-76l-53 -55l63 -97l111 111v290h-182z" />
    <glyph glyph-name="colon" unicode=":" 
d="M209 585h182v-182h-182v182zM209 201h182v-182h-182v182z" />
    <glyph glyph-name="semicolon" unicode=";" 
d="M209 403v182h182v-182h-182zM209 169v-169h61v-77l-53 -55l64 -95l110 108v288h-182z" />
    <glyph glyph-name="ellipsis" unicode="&#x2026;" 
d="M20 0v140h140v-140h-140zM230 0v140h140v-140h-140zM440 0v140h140v-140h-140z" />
    <glyph glyph-name="exclam" unicode="!" 
d="M372 84h-144v-132h144v132zM240 204h122v527h-122v-527z" />
    <glyph glyph-name="exclamdown" unicode="&#xa1;" 
d="M228 556h144v132h-144v-132zM360 436h-122v-527h122v527z" />
    <glyph glyph-name="question" unicode="?" 
d="M150 711l-137 -143l62 -96l123 126h191l55 -82l-206 -213v-119h122v84l227 236l-137 207h-300zM228 -31h144v132h-144v-132z" />
    <glyph glyph-name="questiondown" unicode="&#xbf;" 
d="M450 -32l137 143l-62 96l-123 -126h-191l-55 82l206 213v119h-122v-84l-227 -236l137 -207h300zM372 710h-144v-132h144v132z" />
    <glyph glyph-name="periodcentered" unicode="&#xb7;" 
d="M202 202v196h196v-196h-196z" />
    <glyph glyph-name="bullet" unicode="&#x2022;" 
d="M259 397l-56 -56v-82l56 -55h80l58 55v82l-58 56h-80z" />
    <glyph glyph-name="asterisk" unicode="*" 
d="M241 540v-130l-123 40l-39 -114l124 -40l-76 -105l97 -71l76 105l76 -105l98 71l-75 105l122 40l-36 114l-124 -40v130h-120z" />
    <glyph glyph-name="numbersign" unicode="#" 
d="M229 281l33 178h107l-32 -178h-108zM582 572h-78l33 168h-116l-30 -168h-109l32 168h-113l-32 -168h-98v-113h77l-32 -178h-98v-113h77l-32 -168h116l30 168h106l-30 -168h113l33 168h98v113h-78l33 178h98v113z" />
    <glyph glyph-name="uni203E" unicode="&#x203e;" 
d="M600 800h-600v112h600v-112z" />
    <glyph glyph-name="slash" unicode="/" 
d="M412 802l105 -35l-329 -969l-105 35z" />
    <glyph glyph-name="backslash" unicode="\" 
d="M188 802l329 -969l-105 -35l-329 969z" />
    <glyph glyph-name="hyphen" unicode="-" 
d="M491 244h-382v112h382v-112z" />
    <glyph glyph-name="endash" unicode="&#x2013;" 
d="M580 244h-560v112h560v-112z" />
    <glyph glyph-name="emdash" unicode="&#x2014;" 
d="M600 244h-600v112h600v-112z" />
    <glyph glyph-name="underscore" unicode="_" 
d="M560 -162h-520v112h520v-112z" />
    <glyph glyph-name="underscoredbl" unicode="&#x2017;" 
d="M560 -162h-520v112h520v-112zM560 -334h-520v112h520v-112z" />
    <glyph glyph-name="parenleft" unicode="(" 
d="M402 852l-292 -301v-502l292 -301l88 108l-239 246v396l239 246z" />
    <glyph glyph-name="parenright" unicode=")" 
d="M202 852l-93 -107l241 -247v-396l-241 -247l93 -107l289 301v502z" />
    <glyph glyph-name="braceleft" unicode="{" 
d="M324 803l-62 -65v-247l-185 -191l185 -191v-247l62 -65h199v114h-139v235l-150 154l150 154v235h139v114h-199z" />
    <glyph glyph-name="braceright" unicode="}" 
d="M77 803v-114h142v-235l147 -154l-147 -154v-235h-142v-114h199l62 65v247l185 191l-185 191v247l-62 65h-199z" />
    <glyph glyph-name="bracketleft" unicode="[" 
d="M140 803v-1006h320v114h-200v778h200v114h-320z" />
    <glyph glyph-name="bracketright" unicode="]" 
d="M139 803v-116h201v-774h-201v-116h322v1006h-322z" />
    <glyph glyph-name="quotesinglbase" unicode="&#x201a;" 
d="M209 173v-173h61v-76l-53 -55l63 -97l111 111v290h-182z" />
    <glyph glyph-name="quotedblbase" unicode="&#x201e;" 
d="M330 173v-173h61v-76l-53 -55l63 -97l111 111v290h-182zM88 173v-173h61v-76l-53 -55l63 -97l111 111v290h-182z" />
    <glyph glyph-name="quotedblleft" unicode="&#x201c;" 
d="M242 500v173h-61v76l53 55l-63 97l-111 -111v-290h182zM494 500v173h-61v76l53 55l-63 97l-111 -111v-290h182z" />
    <glyph glyph-name="quotedblright" unicode="&#x201d;" 
d="M358 801v-173h61v-76l-53 -55l63 -97l111 111v290h-182zM106 801v-173h61v-76l-53 -55l63 -97l111 111v290h-182z" />
    <glyph glyph-name="quoteleft" unicode="&#x2018;" 
d="M391 500v173h-61v76l53 55l-63 97l-111 -111v-290h182z" />
    <glyph glyph-name="quoteright" unicode="&#x2019;" 
d="M209 800v-173h61v-76l-53 -55l63 -97l111 111v290h-182z" />
    <glyph glyph-name="guillemotleft" unicode="&#xab;" 
d="M525 84l-140 215l140 216l-69 42l-185 -226v-64l185 -224zM330 84l-140 215l140 216l-69 42l-185 -226v-64l185 -224z" />
    <glyph glyph-name="guillemotright" unicode="&#xbb;" 
d="M76 84l69 -41l185 224v64l-185 226l-69 -42l140 -216zM271 84l69 -41l185 224v64l-185 226l-69 -42l140 -216z" />
    <glyph glyph-name="guilsinglleft" unicode="&#x2039;" 
d="M427 84l-140 215l140 216l-69 42l-185 -226v-64l185 -224z" />
    <glyph glyph-name="guilsinglright" unicode="&#x203a;" 
d="M314 299l-141 -215l69 -41l185 224v64l-185 226l-69 -42z" />
    <glyph glyph-name="quotedbl" unicode="&#x22;" 
d="M129 394h121v306h-121v-306zM350 394h121v306h-121v-306z" />
    <glyph glyph-name="quotesingle" unicode="'" 
d="M240 394h121v306h-121v-306z" />
    <glyph glyph-name="ampersand_ampersand.liga" 
d="M-337 741l-93 -98v-75l93 -138l-173 -179v-143l73 -108h288l84 87l58 -87h288l59 63l44 -63h136l-100 145l103 105v129h-161v-112h19l-25 -26l-118 176l159 166v63l-65 95h-239l-93 -98v-75l93 -138l-173 -179l-112 166l159 166v63l-65 95h-239zM-316 599l28 29h132l5 -7
l-106 -108zM114 599l28 29h132l5 -7l-106 -108zM-390 131v82l116 122l121 -178l-43 -44h-182zM52 113l-44 67l148 155l121 -178l-43 -44h-182z" />
    <glyph glyph-name="dollar_greater.liga" 
d="M-246 677v166h-123v-166h-89l-92 -96v-173l90 -134h252l20 -29v-123l-11 -9h-350l-47 -113h227v-167h123v167h97l82 85v181l-81 121h-252l-29 43v115l18 19h602l258 -248l-256 -249l77 -81l310 300v60l-343 331h-483z" />
    <glyph glyph-name="plus_plus.liga" 
d="M-269 512v-156h-157v-113h157v-155h112v155h157v113h-157v156h-112zM157 512v-156h-157v-113h157v-155h112v155h157v113h-157v156h-112z" />
    <glyph glyph-name="plus_plus_plus.liga" 
d="M-356 512v-156h-157v-113h157v-155h112v155h157v113h-157v156h-112zM-782 512v-156h-157v-113h157v-155h112v155h157v113h-157v156h-112zM70 512v-156h-157v-113h157v-155h112v155h157v113h-157v156h-112z" />
    <glyph glyph-name="equal_equal.liga" 
d="M-452 464h452v-113h-452v113zM-452 239h452v-113h-452v113zM0 464h452v-113h-452v113zM0 239h452v-113h-452v113z" />
    <glyph glyph-name="equal_equal_equal.liga" 
d="M-978 364h1356v-113h-1356v113zM-978 149h1356v-113h-1356v113zM-978 579h1356v-113h-1356v113z" />
    <glyph glyph-name="equal_greater.liga" 
d="M-452 464h738v-113h-738v113zM-452 239h738v-113h-738v113zM143 623l309 -298v-60l-311 -300l-76 81l256 249l-257 246z" />
    <glyph glyph-name="equal_greater_equal.liga" 
d="M-170 464h472v-113h-422zM-120 239h422v-113h-472zM-309 623l309 -298v-60l-311 -300l-76 81l256 249l-257 246zM-904 464h738v-113h-738v113zM-904 239h738v-113h-738v113z" />
    <glyph glyph-name="equal_less_equal.liga" 
d="M-431 464l-50 -113h-422v113h472zM-481 239l50 -113h-472v113h422zM-292 623l79 -82l-257 -246l256 -249l-76 -81l-311 300v60zM303 464v-113h-738v113h738zM303 239v-113h-738v113h738z" />
    <glyph glyph-name="equal_less_less.liga" 
d="M-901 465h542v-113h-542v113zM-901 240h542v-113h-542v113zM-216 630l79 -82l-257 -246l256 -249l-76 -81l-311 300v60zM202 630l79 -82l-257 -246l256 -249l-76 -81l-311 300v60z" />
    <glyph glyph-name="greater_equal.liga" 
d="M-274 622l309 -298v-60l-311 -300l-76 81l256 249l-257 246zM-99 464h452v-113h-452v113zM-99 239h452v-113h-452v113z" />
    <glyph glyph-name="greater_greater_equal.liga" 
d="M301 465v-113h-542v113h542zM301 240v-113h-542v113h542zM-384 630l309 -298v-60l-311 -300l-76 81l256 249l-257 246zM-802 630l309 -298v-60l-311 -300l-76 81l256 249l-257 246z" />
    <glyph glyph-name="less_hyphen.liga" 
d="M-277 244v112h658v-112h-658zM-73 628l79 -82l-257 -246l256 -249l-76 -81l-311 300v60z" />
    <glyph glyph-name="less_asterisk_greater.liga" 
d="M-667 669l79 -82l-257 -246l256 -249l-76 -81l-311 300v60zM-359 540v-130l-123 40l-39 -114l124 -40l-76 -105l97 -71l76 105l76 -105l98 71l-75 105l122 40l-36 114l-124 -40v130h-120zM5 669l309 -298v-60l-311 -300l-76 81l256 249l-257 246z" />
    <glyph glyph-name="less_dollar.liga" 
d="M377 677v166h-123v-166h-89l-92 -96v-173l90 -134h252l20 -29v-123l-11 -9h-617l-233 226l256 246l-79 82l-308 -298v-60l317 -309h494v-167h123v167h97l82 85v181l-81 121h-252l-29 43v115l18 19h300l46 113h-181z" />
    <glyph glyph-name="less_dollar_greater.liga" 
d="M-246 677v166h-123v-166h-89l-92 -96v-173l90 -134h252l20 -29v-123l-11 -9h-617l-233 226l256 246l-79 82l-308 -298v-60l317 -309h494v-167h123v167h97l82 85v181l-81 121h-252l-29 43v115l18 19h602l258 -248l-256 -249l77 -81l310 300v60l-343 331h-483z" />
    <glyph glyph-name="less_equal.liga" 
d="M452 464v-113h-738v113h738zM452 239v-113h-738v113h738zM-143 623l79 -82l-257 -246l256 -249l-76 -81l-311 300v60z" />
    <glyph glyph-name="at" unicode="@" 
d="M193 677l-190 -186v-391l154 -204h299v93h-261l-91 121v360l121 115h166l105 -92v-298h-40v198l-81 73h-115l-106 -107v-142l81 -110h289l73 47v364l-168 159h-236zM250 239v91l41 44h59v-179h-71z" />
    <glyph glyph-name="ampersand" unicode="&#x26;" 
d="M172 741l-93 -98v-76l93 -137l-174 -180v-142l74 -108h288l59 63l43 -63h137l-100 144l103 105v130h-161v-112h18l-24 -27l-118 177l159 165v64l-65 95h-239zM193 599l28 29h132l4 -7l-105 -108zM119 131v82l116 121l120 -177l-42 -44h-182z" />
    <glyph glyph-name="paragraph" unicode="&#xb6;" 
d="M144 767l-92 -94v-322l90 -134h109l55 32v-329h121v735h46v-735h75v847h-404z" />
    <glyph glyph-name="section" unicode="&#xa7;" 
d="M176 780l-88 -86v-125l41 -61l-44 -43v-125l86 -129h206l20 -27v-60l-10 -11h-195l-34 51l-78 -80l54 -84h304l80 88v120l-34 50l36 41v138l-78 116h-206l-28 40v61l18 16h156l48 -70l78 81l-68 99h-264zM234 324l-28 40v61l18 16h156l20 -29v-77l-10 -11h-156z" />
    <glyph glyph-name="copyright" unicode="&#xa9;" 
d="M200 514h208l72 -106l-51 -53l-59 87h-138l-32 -31v-148l40 -58h137l60 61l41 -61l-69 -72h-208l-81 120v178zM181 602l-163 -162v-239l163 -161h234l167 161v239l-167 162h-234z" />
    <glyph glyph-name="registered" unicode="&#xae;" 
d="M215 700l-115 -116v-170l115 -114h166l119 114v170l-119 116h-166zM234 629h120l51 -65v-33l-44 -54l41 -52v-48h-57v42l-43 55h-48v-97h-57v215zM254 577v-70h83l11 37v12l-22 21h-72z" />
    <glyph glyph-name="trademark" unicode="&#x2122;" 
d="M8 647v-54h80l29 -43v-250h60v258l-58 35h141v-293h61v231l72 -107v-2h64v69l75 78v-269h60v347h-60l-133 -137l-56 83v54h-335z" />
    <glyph glyph-name="degree" unicode="&#xb0;" 
d="M250 700l-67 -68v-98l67 -67h98l69 67v98l-69 68h-98zM281 628h37l27 -26v-38l-27 -25h-37l-26 25v38z" />
    <glyph glyph-name="bar" unicode="|" 
d="M240 -160v920h120v-920h-120z" />
    <glyph glyph-name="brokenbar" unicode="&#xa6;" 
d="M360 760h-120v-350h120v350zM360 190h-120v-350h120v350z" />
    <glyph glyph-name="dagger" unicode="&#x2020;" 
d="M255 0v700h90v-700h-90zM471 410h-342v90h342v-90z" />
    <glyph glyph-name="daggerdbl" unicode="&#x2021;" 
d="M255 0v700h90v-700h-90zM471 410h-342v90h342v-90zM471 160h-342v90h342v-90z" />
    <glyph glyph-name="uni24C0" unicode="&#x24c0;" 
d="M300 0q-62 0 -116.5 23.5t-95.5 64.5t-64.5 95.5t-23.5 116.5t23.5 116.5t64.5 95.5t95.5 64.5t116.5 23.5t116.5 -23.5t95.5 -64.5t64.5 -95.5t23.5 -116.5t-23.5 -116.5t-64.5 -95.5t-95.5 -64.5t-116.5 -23.5zM300 75q63 0 114 30t81 81t30 114t-30 114t-81 81
t-114 30t-114 -30t-81 -81t-30 -114t30 -114t81 -81t114 -30zM272 301l158 -126h-90l-114 89zM430 425l-158 -124l-46 36l113 88h91zM227 425v-249l-57 44v161z" />
    <glyph glyph-name="uni20BF" unicode="&#x20bf;" 
d="M59 700v-700h389l94 58v202l-102 150h-5l98 102v107l-57 81h-417zM180 588h231v-39l-132 -139h-99v178zM180 298h200l42 -58v-127h-242v185zM119 634h121v208h-121v-208zM309 634h121v208h-121v-208zM119 -149h121v208h-121v-208zM309 -149h121v208h-121v-208z" />
    <glyph glyph-name="cent" unicode="&#xa2;" 
d="M159 553l-89 -92v-330l88 -131h93v-166h121v166h87l83 86l-59 87l-68 -70h-192l-32 46v265l22 23h193l60 -87l78 80l-83 123h-89v177h-121v-177h-92z" />
    <glyph glyph-name="currency" unicode="&#xa4;" 
d="M460 578l-72 -72l-12 13h-152l-12 -13l-72 72l-79 -80l72 -71l-13 -13v-148l13 -15l-72 -70l79 -79l72 70l12 -13h152l12 13l72 -70l79 79l-72 70l13 15v148l-13 13l72 71zM329 410l41 -41v-59l-41 -41h-59l-40 41v60l40 40h59z" />
    <glyph glyph-name="dollar" unicode="$" 
d="M412 112h-239l-39 54l-78 -82l59 -84h128v-140h122v140h97l82 85v191l-80 121h-252l-30 43v125l18 19h195l48 -71l80 79l-68 105h-90v100h-122v-100h-89l-92 -96v-183l90 -134h251l21 -29v-133z" />
    <glyph glyph-name="Euro" unicode="&#x20ac;" 
d="M201 570l19 20h194l61 -90l80 83l-82 120h-300l-93 -95v-141h-40v-93h40v-52h-40v-93h40v-95l91 -134h300l89 90l-67 97l-69 -74h-194l-29 43v73h219v93h-219v52h219v93h-219v103z" />
    <glyph glyph-name="uni20BA" unicode="&#x20ba;" 
d="M141 748h121v-166l162 63v-106l-162 -64v-49l159 64v-107l-159 -64v-163l28 -43h84l101 152l64 -93l-115 -172h-193l-90 132v153l-78 -30v106l78 30v48l-80 -30v106l80 30v203z" />
    <glyph glyph-name="sterling" unicode="&#xa3;" 
d="M222 740l-92 -138v-173h-69v-112h69v-162l-29 -42h-60v-113h517v113h-322l16 24v180h191v112h-191v155l30 43h157v-72h120v185h-337z" />
    <glyph glyph-name="kda" 
d="M300 0q-62 0 -116.5 23.5t-95.5 64.5t-64.5 95.5t-23.5 116.5t23.5 116.5t64.5 95.5t95.5 64.5t116.5 23.5t116.5 -23.5t95.5 -64.5t64.5 -95.5t23.5 -116.5t-23.5 -116.5t-64.5 -95.5t-95.5 -64.5t-116.5 -23.5zM261 301l-63 -51l157 -123h125zM480 473h-126l-156 -122
l63 -50zM199 473l-79 -61v-223l79 -60v344z" />
    <glyph glyph-name="yen" unicode="&#xa5;" 
d="M421 700h120v-193l-181 -188v-319h-120v313l-181 269v118h120v-98l122 -181h2l118 124v155zM506 341v-93h-412v93h412zM506 196v-93h-412v93h412z" />
    <glyph glyph-name="plus" unicode="+" 
d="M244 512v-156h-157v-113h157v-155h112v155h157v113h-157v156h-112z" />
    <glyph glyph-name="minus" unicode="&#x2212;" 
d="M501 356h-402v-112h402v112z" />
    <glyph glyph-name="multiply" unicode="&#xd7;" 
d="M411 490l-111 -110l-111 111l-79 -80l110 -111l-110 -110l80 -80l110 110l111 -111l79 80l-110 111l110 110z" />
    <glyph glyph-name="divide" unicode="&#xf7;" 
d="M501 359h-402v-113h402v113zM272 567l-38 -39v-58l38 -38h56l40 38v58l-40 39h-56zM272 168l-38 -38v-58l38 -38h56l40 38v58l-40 38h-56z" />
    <glyph glyph-name="equal" unicode="=" 
d="M74 464h452v-113h-452v113zM74 239h452v-113h-452v113z" />
    <glyph glyph-name="notequal" unicode="&#x2260;" 
d="M495 574l-289 -595l-101 48l289 595zM74 464h452v-113h-452v113zM74 239h452v-113h-452v113z" />
    <glyph glyph-name="greater" unicode="&#x3e;" 
d="M185 669l309 -298v-60l-311 -300l-76 81l256 249l-257 246z" />
    <glyph glyph-name="less" unicode="&#x3c;" 
d="M415 669l79 -82l-257 -246l256 -249l-76 -81l-311 300v60z" />
    <glyph glyph-name="greaterequal" unicode="&#x2265;" 
d="M385 438l-282 -128l45 -101l350 156v146l-352 155l-40 -106zM498 165l-395 -4v-121h395v125z" />
    <glyph glyph-name="lessequal" unicode="&#x2264;" 
d="M215 438l279 122l-40 106l-352 -155v-146l350 -156l45 101zM102 165v-125h395v121z" />
    <glyph glyph-name="plusminus" unicode="&#xb1;" 
d="M501 152h-402v-112h402v112zM244 635v-156h-157v-113h157v-155h112v155h157v113h-157v156h-112z" />
    <glyph glyph-name="approxequal" unicode="&#x2248;" 
d="M476 510l58 -97l-134 -80l-182 51l-94 -57l-58 97l134 80l184 -49zM476 273l58 -97l-134 -80l-182 51l-94 -57l-58 97l134 80l184 -49z" />
    <glyph glyph-name="asciitilde" unicode="~" 
d="M524 384l-136 -66l-179 66l-173 -83l40 -85l139 68l176 -68l173 84z" />
    <glyph glyph-name="logicalnot" unicode="&#xac;" 
d="M521 386h-442v-113h321v-183h121v296z" />
    <glyph glyph-name="asciicircum" unicode="^" 
d="M299 727l168 -282l106 50l-203 345h-142l-197 -341l106 -51z" />
    <glyph glyph-name="infinity" unicode="&#x221e;" 
d="M580 436l-130 125h-72l-90 -61l-65 61h-110l-93 -61v-217l103 -97h88l97 65l69 -65h110l93 63v187zM396 467h26l70 -68v-103l-23 -16h-64l-42 43v122zM141 467h54l80 -77v-56l-80 -54h-45l-42 43v122z" />
    <glyph glyph-name="integral" unicode="&#x222b;" 
d="M583 905l-28 -100h-87l-67 -70l-89 -875l-137 -142h-135l28 100h67l67 70l89 875l137 142h155z" />
    <glyph glyph-name="product" unicode="&#x220f;" 
d="M574 740h-548v-113h87v-701l104 14v687h167v-701l105 14v687h85v113z" />
    <glyph glyph-name="summation" unicode="&#x2211;" 
d="M536 757h-472v-101l256 -318l-256 -351v-100h472v113h-337l221 299v82l-222 263h338v113z" />
    <glyph glyph-name="radical" unicode="&#x221a;" 
d="M705 853v-113h-131l-199 -740h-108l-159 383l89 47l106 -257h15l183 680h204z" />
    <glyph glyph-name="partialdiff" unicode="&#x2202;" 
d="M145 731l-35 -104l93 -29l107 -62l76 -74l11 -49l-95 45l-167 -66l-71 -190l70 -189l170 -73l168 73l64 192v102l-53 203l-100 104l-100 70zM222 97l-44 105l51 122l69 27l117 -55l8 -71l-43 -128l-76 -37z" />
    <glyph glyph-name="percent" unicode="%" 
d="M98 700l-57 -59v-84l57 -57h83l60 57v84l-60 59h-83zM502 700l-502 -640l97 -77l503 647zM416 201l-58 -58v-85l58 -58h84l59 58v85l-59 58h-84z" />
    <glyph glyph-name="perthousand" unicode="&#x2030;" 
d="M98 700l-57 -59v-84l57 -57h83l60 57v84l-60 59h-83zM550 550l-550 -216l45 -115l555 222zM417 200l-58 -58v-84l58 -58h83l59 58v84l-59 58h-83zM166 200l-58 -58v-84l58 -58h83l59 58v84l-59 58h-83z" />
    <glyph glyph-name="universal" unicode="&#x2200;" 
d="M79 181l174 -181h268v700h-120v-297h-202v297h-120v-519zM199 216v74h202v-177h-102z" />
    <glyph glyph-name="arrowup" unicode="&#x2191;" 
d="M629 368l-82 -79l-246 257l-249 -256l-81 76l300 311h60zM244 590h112v-493h-112v493z" />
    <glyph glyph-name="uni2197" unicode="&#x2197;" 
d="M527 88l-114 2l8 356l-357 -5l-4 111l432 7l43 -42zM412 517l79 -79l-349 -349l-79 79z" />
    <glyph glyph-name="arrowright" unicode="&#x2192;" 
d="M291 669l309 -298v-60l-311 -300l-76 81l256 249l-257 246zM513 284h-493v112h493v-112z" />
    <glyph glyph-name="uni2198" unicode="&#x2198;" 
d="M64 110l2 114l356 -8l-5 357l111 4l7 -432l-42 -43zM493 225l-79 -79l-349 349l79 79z" />
    <glyph glyph-name="arrowdown" unicode="&#x2193;" 
d="M-29 349l82 79l246 -257l249 256l81 -76l-300 -311h-60zM356 127h-112v493h112v-493z" />
    <glyph glyph-name="uni2199" unicode="&#x2199;" 
d="M86 573l114 -2l-8 -356l357 5l4 -111l-432 -7l-43 42zM201 144l-79 79l349 349l79 -79z" />
    <glyph glyph-name="arrowleft" unicode="&#x2190;" 
d="M309 669l79 -82l-257 -246l256 -249l-76 -81l-311 300v60zM87 284v112h493v-112h-493z" />
    <glyph glyph-name="uni2196" unicode="&#x2196;" 
d="M549 551l-2 -114l-356 8l5 -357l-111 -4l-7 432l42 43zM120 436l79 79l349 -349l-79 -79z" />
    <glyph glyph-name="arrowboth" unicode="&#x2194;" 
d="M140 516l79 -82l-118 -112l118 -115l-76 -81l-173 166v60zM27 265v112h552v-112h-552zM464 134l-79 82l114 109l-111 110l76 81l166 -161v-60z" />
    <glyph glyph-name="arrowupdn" unicode="&#x2195;" 
d="M105 140l82 79l112 -118l115 118l81 -76l-166 -173h-60zM356 27h-112v552h112v-552zM487 464l-82 -79l-109 114l-110 -111l-81 76l161 166h60z" />
    <glyph glyph-name="uni25CC" unicode="&#x25cc;" 
d="M353 767q-13 2 -26 2.5t-27 0.5h-2v-35h2q12 0 24.5 -0.5t23.5 -2.5zM199 721q12 4 24 6.5t25 3.5l-5 35q-13 -1 -26.5 -4t-26.5 -7zM459 739q-27 11 -52 17l-9 -34q12 -3 24 -7t24 -9zM106 682q11 7 22.5 12.5t22.5 10.5l-13 32q-13 -5 -25.5 -11t-23.5 -13zM554 684
q-11 9 -22.5 16.5t-23.5 14.5l-17 -31q21 -12 42 -27zM27 621q9 9 18.5 17.5t19.5 15.5l-22 28q-10 -8 -20.5 -17t-20.5 -19zM632 607q-8 11 -17.5 21.5t-19.5 19.5l-24 -24q9 -9 17.5 -18.5t15.5 -19.5zM-34 541q6 11 13.5 21.5t14.5 20.5l-28 21q-8 -10 -15.5 -22
t-14.5 -23zM687 513q-5 13 -11 25t-13 24l-31 -18q7 -10 12.5 -21.5t10.5 -23.5zM-72 448q3 12 7.5 24t8.5 24l-33 13q-5 -13 -9 -25.5t-8 -26.5zM716 407q-1 14 -4 27.5t-7 26.5l-34 -9q4 -12 6.5 -24.5t3.5 -24.5zM-85 350q0 12 1 24.5t2 24.5l-35 4l-2 -26t-1 -27v-1h35
v1zM717 295q2 14 2.5 28t0.5 27v3l-35 -1v-2q0 -13 -0.5 -25.5t-2.5 -24.5zM-71 249q-4 12 -6 24.5t-4 24.5l-35 -4q2 -13 4.5 -27t6.5 -27zM688 189q5 13 9.5 26t8.5 26l-34 9q-3 -12 -7 -24t-9 -23zM-33 156q-6 11 -11.5 22.5t-10.5 22.5l-33 -13q5 -13 11.5 -25t13.5 -24
zM633 94q9 11 16.5 22.5t14.5 23.5l-30 18q-7 -11 -13.5 -21.5t-14.5 -20.5zM29 77q-9 9 -17.5 18.5t-16.5 19.5l-27 -22q8 -10 17 -20.5t19 -20.5zM556 17q11 8 21 17t20 19l-25 25q-8 -9 -17.5 -17t-19.5 -16zM108 16q-10 6 -20.5 13.5t-21.5 14.5l-21 -28
q11 -8 22.5 -15.5t23.5 -14.5zM461 -38q27 11 50 24l-18 31q-11 -7 -22.5 -12.5t-22.5 -10.5zM201 -22q-12 3 -24 7t-23 9l-14 -33q13 -5 26 -9l26 -8zM356 -67q14 2 27 4.5t26 6.5l-9 34q-12 -3 -24 -5.5t-25 -4.5zM301 -70l-1 35q-12 0 -24.5 1t-24.5 2l-5 -35
q14 -1 27.5 -2t27.5 -1z" />
    <glyph glyph-name="lozenge" unicode="&#x25ca;" 
d="M350 732h-103l-196 -367l196 -365h103l199 367zM302 614l132 -249l-132 -251h-4l-132 251l132 249h4z" />
    <glyph glyph-name="uni2500" unicode="&#x2500;" 
d="M605 390v-80h-610v80h610z" />
    <glyph glyph-name="uni2502" unicode="&#x2502;" 
d="M340 1000v-1500h-80v1500h80z" />
    <glyph glyph-name="uni250C" unicode="&#x250c;" 
d="M605 390v-80h-265v-810h-80v890h345z" />
    <glyph glyph-name="uni2510" unicode="&#x2510;" 
d="M340 390v-890h-80v810h-265v80h345z" />
    <glyph glyph-name="uni2514" unicode="&#x2514;" 
d="M340 1000v-610h265v-80h-345v690h80z" />
    <glyph glyph-name="uni2518" unicode="&#x2518;" 
d="M340 1000v-690h-345v80h265v610h80z" />
    <glyph glyph-name="uni251C" unicode="&#x251c;" 
d="M340 1000v-610h265v-80h-265v-810h-80v1500h80z" />
    <glyph glyph-name="uni2524" unicode="&#x2524;" 
d="M340 1000v-1500h-80v810h-265v80h265v610h80z" />
    <glyph glyph-name="uni252C" unicode="&#x252c;" 
d="M605 390v-80h-265v-810h-80v810h-265v80h610z" />
    <glyph glyph-name="uni2534" unicode="&#x2534;" 
d="M340 1000v-610h265v-80h-610v80h265v610h80z" />
    <glyph glyph-name="uni253C" unicode="&#x253c;" 
d="M340 1000v-610h265v-80h-265v-810h-80v810h-265v80h265v610h80z" />
    <glyph glyph-name="uni0308" unicode="&#x308;" horiz-adv-x="0" 
d="M140 630v110h110v-110h-110zM350 630v110h110v-110h-110z" />
    <glyph glyph-name="uni0307" unicode="&#x307;" horiz-adv-x="0" 
d="M230 620v140h140v-140h-140z" />
    <glyph glyph-name="gravecomb" unicode="&#x300;" horiz-adv-x="0" 
d="M395 595l42 69l-208 136l-65 -94z" />
    <glyph glyph-name="acutecomb" unicode="&#x301;" horiz-adv-x="0" 
d="M205 595l231 111l-65 94l-208 -136z" />
    <glyph glyph-name="uni030B" unicode="&#x30b;" horiz-adv-x="0" 
d="M158 596l156 204l-101 54l-124 -215zM332 596l179 183l-93 66l-149 -199z" />
    <glyph glyph-name="uni0302" unicode="&#x302;" horiz-adv-x="0" 
d="M330 815h-59l-157 -119l58 -65l128 82l129 -82l57 65z" />
    <glyph glyph-name="uni030C" unicode="&#x30c;" horiz-adv-x="0" 
d="M330 691l156 119l-57 65l-129 -82l-128 82l-58 -65l157 -119h59z" />
    <glyph glyph-name="uni0306" unicode="&#x306;" horiz-adv-x="0" 
d="M99 718v81h130v-93h142v93h130v-81l-112 -112h-178z" />
    <glyph glyph-name="uni030A" unicode="&#x30a;" horiz-adv-x="0" 
d="M250 800l-67 -68v-98l67 -67h98l69 67v98l-69 68h-98zM281 728h37l27 -28v-36l-27 -25h-37l-26 25v36z" />
    <glyph glyph-name="tildecomb" unicode="&#x303;" horiz-adv-x="0" 
d="M472 800l-86 -52l-184 49l-122 -73l48 -80l89 56l181 -53l122 73z" />
    <glyph glyph-name="uni0304" unicode="&#x304;" horiz-adv-x="0" 
d="M451 687h-302v113h302v-113z" />
    <glyph glyph-name="uni0305" unicode="&#x305;" horiz-adv-x="0" 
d="M600 800h-600v112h600v-112z" />
    <glyph glyph-name="uni030D" unicode="&#x30d;" horiz-adv-x="0" 
d="M230 520v240h140v-240h-140z" />
    <glyph glyph-name="uni030E" unicode="&#x30e;" horiz-adv-x="0" 
d="M120 520v240h140v-240h-140zM340 520v240h140v-240h-140z" />
    <glyph glyph-name="uni0310" unicode="&#x310;" horiz-adv-x="0" 
d="M99 718v81h120v-93h162v93h120v-81l-112 -112h-178zM250 775v100h100v-100h-100z" />
    <glyph glyph-name="uni0312" unicode="&#x312;" horiz-adv-x="0" 
d="M361 520v133h-61v56l53 55l-63 67l-81 -81v-230h152z" />
    <glyph glyph-name="uni0313" unicode="&#x313;" horiz-adv-x="0" 
d="M209 800v-173h61v-76l-53 -55l63 -97l111 111v290h-182z" />
    <glyph glyph-name="uni0314" unicode="&#x314;" horiz-adv-x="0" 
d="M391 800h-182v-290l111 -111l63 97l-53 55v76h61v173z" />
    <glyph glyph-name="uni0316" unicode="&#x316;" horiz-adv-x="0" 
d="M395 -205l42 69l-208 136l-65 -94z" />
    <glyph glyph-name="uni0317" unicode="&#x317;" horiz-adv-x="0" 
d="M205 -205l231 111l-65 94l-208 -136z" />
    <glyph glyph-name="dotbelowcomb" unicode="&#x323;" horiz-adv-x="0" 
d="M230 -200v140h140v-140h-140z" />
    <glyph glyph-name="uni0324" unicode="&#x324;" horiz-adv-x="0" 
d="M140 -170v110h110v-110h-110zM350 -170v110h110v-110h-110z" />
    <glyph glyph-name="uni0325" unicode="&#x325;" horiz-adv-x="0" 
d="M250 -60l-67 -68v-98l67 -67h98l69 67v98l-69 68h-98zM281 -132h37l27 -26v-38l-27 -25h-37l-26 25v38z" />
    <glyph glyph-name="uni0326" unicode="&#x326;" horiz-adv-x="0" 
d="M245 -326l156 204l-101 54l-124 -215z" />
    <glyph glyph-name="uni0327" unicode="&#x327;" horiz-adv-x="0" 
d="M230 -139h100l-100 139h120l80 -98v-61l-80 -66h-120v86z" />
    <glyph glyph-name="uni0328" unicode="&#x328;" horiz-adv-x="0" 
d="M400 -139h-100l100 139l-113 10l-87 -108v-61l80 -67h120v87z" />
    <glyph glyph-name="uni032D" unicode="&#x32d;" horiz-adv-x="0" 
d="M330 -60h-59l-157 -119l58 -65l128 82l129 -82l57 65z" />
    <glyph glyph-name="uni032E" unicode="&#x32e;" horiz-adv-x="0" 
d="M99 -141v81h130v-93h142v93h130v-81l-112 -112h-178z" />
    <glyph glyph-name="uni0331" unicode="&#x331;" horiz-adv-x="0" 
d="M451 -173h-302v113h302v-113z" />
    <glyph glyph-name="uni0335" unicode="&#x335;" horiz-adv-x="0" 
d="M430 244h-260v112h260v-112z" />
    <glyph glyph-name="uni0336" unicode="&#x336;" horiz-adv-x="0" 
d="M600 244h-600v112h600v-112z" />
    <glyph glyph-name="uni0337" unicode="&#x337;" horiz-adv-x="0" 
d="M360 648l-244 -719l105 -35l244 719z" />
    <glyph glyph-name="uni0338" unicode="&#x338;" horiz-adv-x="0" 
d="M412 802l105 -35l-302 -889l-105 35z" />
    <glyph glyph-name="dieresis" unicode="&#xa8;" 
d="M120 620v140h140v-140h-140zM340 620v140h140v-140h-140z" />
    <glyph glyph-name="dotaccent" unicode="&#x2d9;" 
d="M230 620v140h140v-140h-140z" />
    <glyph glyph-name="grave" unicode="`" 
d="M395 595l42 69l-208 136l-65 -94z" />
    <glyph glyph-name="acute" unicode="&#xb4;" 
d="M205 595l231 111l-65 94l-208 -136z" />
    <glyph glyph-name="hungarumlaut" unicode="&#x2dd;" 
d="M158 596l156 204l-101 54l-124 -215zM332 596l179 183l-93 66l-149 -199z" />
    <glyph glyph-name="circumflex" unicode="&#x2c6;" 
d="M330 815h-59l-157 -119l58 -65l128 82l129 -82l57 65z" />
    <glyph glyph-name="caron" unicode="&#x2c7;" 
d="M330 691l156 119l-57 65l-129 -82l-128 82l-58 -65l157 -119h59z" />
    <glyph glyph-name="breve" unicode="&#x2d8;" 
d="M99 718v81h130v-93h142v93h130v-81l-112 -112h-178z" />
    <glyph glyph-name="ring" unicode="&#x2da;" 
d="M250 800l-67 -68v-98l67 -67h98l69 67v98l-69 68h-98zM281 728h37l27 -28v-36l-27 -25h-37l-26 25v36z" />
    <glyph glyph-name="tilde" unicode="&#x2dc;" 
d="M472 800l-86 -52l-184 49l-122 -73l48 -80l89 56l181 -53l122 73z" />
    <glyph glyph-name="macron" unicode="&#xaf;" 
d="M451 687h-302v113h302v-113z" />
    <glyph glyph-name="cedilla" unicode="&#xb8;" 
d="M230 -139h100l-100 139h120l80 -98v-61l-80 -66h-120v86z" />
    <glyph glyph-name="ogonek" unicode="&#x2db;" 
d="M400 -139h-100l100 139h-120l-80 -98v-61l80 -67h120v87z" />
    <glyph glyph-name="caron.alt" 
d="M249 943l139 -17l-78 -232l-98 16z" />
    <glyph glyph-name="uniEE00" unicode="&#xee00;" 
d="M600 -40h-499v790h499v73h-579v-936h579v73z" />
    <glyph glyph-name="uniEE01" unicode="&#xee01;" 
d="M-7 -40v-73h614v73h-614zM-7 823v-73h614v73h-614z" />
    <glyph glyph-name="uniEE02" unicode="&#xee02;" 
d="M0 -40v-73h579v936h-579v-73h499v-790h-499z" />
    <glyph glyph-name="uniEE03" unicode="&#xee03;" 
d="M217 644v-590h383v590h-383zM600 -40h-499v790h499v73h-579v-936h579v73z" />
    <glyph glyph-name="uniEE04" unicode="&#xee04;" 
d="M-7 644v-590h614v590h-614zM-7 -40v-73h614v73h-614zM-7 823v-73h614v73h-614z" />
    <glyph glyph-name="uniEE05" unicode="&#xee05;" 
d="M383 644h-383v-590h383v590zM0 -40v-73h579v936h-579v-73h499v-790h-499z" />
    <glyph glyph-name="idotlessogonek" 
d="M101 570v-109h111l30 -44v-308h-183v-109h482v109h-183v329l-89 132h-168zM360 -129h-100l100 139l-113 10l-87 -108v-61l80 -67h120v87z" />
    <glyph glyph-name="liga.spacer" 
 />
    <glyph glyph-name="www.liga" 
d="M119 0h90l78 79l51 -79h93l151 156v352h-121v-315l-69 -64h-3l-49 70v309h-120v-336l-49 -43h-4l-68 101v278h-121v-251l-131 -128h-3l-49 70v309h-120v-336l-49 -43h-4l-118 174v205h-121v-304l-79 -75h-3l-49 70v309h-120v-336l-49 -43h-4l-68 101v278h-121v-300
l141 -208h90l77 79l52 -79h93l136 140l95 -140h90l78 79l51 -79h93l137 142z" />
  </font>
</defs>
</svg>
