<?xml version="1.0" standalone="no"?>
<!DOCTYPE svg PUBLIC "-//W3C//DTD SVG 1.1//EN" "http://www.w3.org/Graphics/SVG/1.1/DTD/svg11.dtd" >
<svg>
<metadata>
Created by FontForge 20120731 at Mon Jul  8 08:47:15 2024
 By www-data
Copyright 2023 The Kode Mono Project Authors (https://github.com/isaozler/kode-mono)
</metadata>
<defs>
<font id="KodeMono-Medium" horiz-adv-x="600" >
  <font-face 
    font-family="Kode Mono Medium"
    font-weight="500"
    font-stretch="normal"
    units-per-em="1000"
    panose-1="2 11 5 9 7 5 2 8 5 3"
    ascent="800"
    descent="-200"
    x-height="538"
    cap-height="700"
    bbox="-1180 -500 739 1000"
    underline-thickness="50"
    underline-position="-75"
    unicode-range="U+000D-FFFFF"
  />
<missing-glyph 
d="M30 482l47 -73l115 118h204l65 -97l-210 -217v-114h96v89l223 233l-127 192h-287zM401 -64h110v100h-110v-100zM401 89h110v99h-110v-99zM87 -64h111v100h-111v-100zM87 89h111v99h-111v-99zM401 -216h110v99h-110v-99zM87 -216h111v99h-111v-99zM251 -216h96v99h-96v-99
z" />
    <glyph glyph-name=".notdef" 
d="M30 482l47 -73l115 118h204l65 -97l-210 -217v-114h96v89l223 233l-127 192h-287zM401 -64h110v100h-110v-100zM401 89h110v99h-110v-99zM87 -64h111v100h-111v-100zM87 89h111v99h-111v-99zM401 -216h110v99h-110v-99zM87 -216h111v99h-111v-99zM251 -216h96v99h-96v-99
z" />
    <glyph glyph-name="A" unicode="A" 
d="M246 700l-166 -171v-529h93v313h253v-313h94v700h-274zM173 505l107 109h146v-215h-253v106z" />
    <glyph glyph-name="Aacute" unicode="&#xc1;" 
d="M246 700l-166 -171v-529h93v313h253v-313h94v700h-274zM173 505l107 109h146v-215h-253v106zM292 737l205 99l-55 77l-186 -122z" />
    <glyph glyph-name="Abreve" unicode="&#x102;" 
d="M246 700l-166 -171v-529h93v313h253v-313h94v700h-274zM173 505l107 109h146v-215h-253v106zM206 845v62h110v-93h128v93h110v-62l-104 -105h-140z" />
    <glyph glyph-name="Acircumflex" unicode="&#xc2;" 
d="M246 700l-166 -171v-529h93v313h253v-313h94v700h-274zM173 505l107 109h146v-215h-253v106zM405 893h-49l-143 -108l48 -52l118 74l120 -74l47 52z" />
    <glyph glyph-name="Adieresis" unicode="&#xc4;" 
d="M246 700l-166 -171v-529h93v313h253v-313h94v700h-274zM173 505l107 109h146v-215h-253v106zM220 739v110h110v-110h-110zM430 739v110h110v-110h-110z" />
    <glyph glyph-name="Agrave" unicode="&#xc0;" 
d="M246 700l-166 -171v-529h93v313h253v-313h94v700h-274zM173 505l107 109h146v-215h-253v106zM468 735l36 54l-186 122l-55 -77z" />
    <glyph glyph-name="Amacron" unicode="&#x100;" 
d="M246 700l-166 -171v-529h93v313h253v-313h94v700h-274zM173 505l107 109h146v-215h-253v106zM518 740h-276v86h276v-86z" />
    <glyph glyph-name="Aogonek" unicode="&#x104;" 
d="M246 700l-166 -171v-529h93v313h253v-313h94v700h-274zM173 505l107 109h146v-215h-253v106zM520 -121h-100l100 122l-87 10l-87 -95v-41l80 -67h94v71z" />
    <glyph glyph-name="Aring" unicode="&#xc5;" 
d="M246 700l-166 -171v-529h93v313h253v-313h94v700h-274zM173 505l107 109h146v-215h-253v106zM333 960l-63 -64v-93l63 -63h92l65 63v93l-65 64h-92zM358 901h43l31 -30v-43l-31 -29h-43l-30 29v43z" />
    <glyph glyph-name="Atilde" unicode="&#xc3;" 
d="M246 700l-166 -171v-529h93v313h253v-313h94v700h-274zM173 505l107 109h146v-215h-253v106zM549 868l-81 -49l-185 49l-109 -65l37 -63l85 52l181 -52l109 65z" />
    <glyph glyph-name="AE" unicode="&#xc6;" 
d="M165 707l-167 -172v-535h94v329h201v-329h309v86h-215v243h154v86h-154v206h215v86h-437zM92 509l108 112h93v-206h-201v94z" />
    <glyph glyph-name="B" unicode="B" 
d="M79 700v-700h371l85 52v217l-96 141h-29l115 121v97l-50 72h-396zM173 615h258v-59l-140 -146h-118v205zM173 324h220l48 -67v-171h-268v238z" />
    <glyph glyph-name="C" unicode="C" 
d="M172 700h288l71 -107l-61 -64l-56 85h-206l-27 -29v-446l36 -53h204l64 63l48 -71l-74 -78h-288l-84 125v488z" />
    <glyph glyph-name="Cacute" unicode="&#x106;" 
d="M172 700h288l71 -107l-61 -64l-56 85h-206l-27 -29v-446l36 -53h204l64 63l48 -71l-74 -78h-288l-84 125v488zM212 737l205 99l-55 77l-186 -122z" />
    <glyph glyph-name="Ccaron" unicode="&#x10c;" 
d="M172 700h288l71 -107l-61 -64l-56 85h-206l-27 -29v-446l36 -53h204l64 63l48 -71l-74 -78h-288l-84 125v488zM325 740l141 107l-47 53l-120 -74l-118 74l-48 -53l143 -107h49z" />
    <glyph glyph-name="Ccedilla" unicode="&#xc7;" 
d="M172 700h288l71 -107l-61 -64l-56 85h-206l-27 -29v-446l36 -53h204l64 63l48 -71l-74 -78h-288l-84 125v488zM243 -114h100l-100 122h97l77 -85v-41l-80 -66h-94v70z" />
    <glyph glyph-name="Cdotaccent" unicode="&#x10a;" 
d="M172 700h288l71 -107l-61 -64l-56 85h-206l-27 -29v-446l36 -53h204l64 63l48 -71l-74 -78h-288l-84 125v488zM243 740v114h114v-114h-114z" />
    <glyph glyph-name="D" unicode="D" 
d="M82 700h319l138 -206v-407l-84 -87h-373v700zM176 614v-529h240l28 29v366l-90 134h-178z" />
    <glyph glyph-name="Eth" unicode="&#xd0;" 
d="M82 700h319l138 -206v-407l-84 -87h-373v700zM176 614v-529h240l28 29v366l-90 134h-178zM259 297h-260v86h260v-86z" />
    <glyph glyph-name="Dcaron" unicode="&#x10e;" 
d="M82 700h319l138 -206v-407l-84 -87h-373v700zM176 614v-529h240l28 29v366l-90 134h-178zM325 740l141 107l-47 53l-120 -74l-118 74l-48 -53l143 -107h49z" />
    <glyph glyph-name="Dcroat" unicode="&#x110;" 
d="M82 700h319l138 -206v-407l-84 -87h-373v700zM176 614v-529h240l28 29v366l-90 134h-178zM259 297h-260v86h260v-86z" />
    <glyph glyph-name="E" unicode="E" 
d="M153 700l-85 -87v-488l83 -125h373v86h-327l-35 53v185h231v86h-231v176l26 28h336v86h-371z" />
    <glyph glyph-name="Eacute" unicode="&#xc9;" 
d="M153 700l-85 -87v-488l83 -125h373v86h-327l-35 53v185h231v86h-231v176l26 28h336v86h-371zM212 737l205 99l-55 77l-186 -122z" />
    <glyph glyph-name="Ecaron" unicode="&#x11a;" 
d="M153 700l-85 -87v-488l83 -125h373v86h-327l-35 53v185h231v86h-231v176l26 28h336v86h-371zM325 740l141 107l-47 53l-120 -74l-118 74l-48 -53l143 -107h49z" />
    <glyph glyph-name="Ecircumflex" unicode="&#xca;" 
d="M153 700l-85 -87v-488l83 -125h373v86h-327l-35 53v185h231v86h-231v176l26 28h336v86h-371zM325 893h-49l-143 -108l48 -52l118 74l120 -74l47 52z" />
    <glyph glyph-name="Edieresis" unicode="&#xcb;" 
d="M153 700l-85 -87v-488l83 -125h373v86h-327l-35 53v185h231v86h-231v176l26 28h336v86h-371zM140 739v110h110v-110h-110zM350 739v110h110v-110h-110z" />
    <glyph glyph-name="Edotaccent" unicode="&#x116;" 
d="M153 700l-85 -87v-488l83 -125h373v86h-327l-35 53v185h231v86h-231v176l26 28h336v86h-371zM243 740v114h114v-114h-114z" />
    <glyph glyph-name="Egrave" unicode="&#xc8;" 
d="M153 700l-85 -87v-488l83 -125h373v86h-327l-35 53v185h231v86h-231v176l26 28h336v86h-371zM388 735l36 54l-186 122l-55 -77z" />
    <glyph glyph-name="Emacron" unicode="&#x112;" 
d="M153 700l-85 -87v-488l83 -125h373v86h-327l-35 53v185h231v86h-231v176l26 28h336v86h-371zM438 740h-276v86h276v-86z" />
    <glyph glyph-name="Eogonek" unicode="&#x118;" 
d="M153 700l-85 -87v-488l83 -125h373v86h-327l-35 53v185h231v86h-231v176l26 28h336v86h-371zM347 -112h-100l100 122l-87 10l-87 -95v-41l80 -67h94v71z" />
    <glyph glyph-name="F" unicode="F" 
d="M191 700l-102 -104v-596h94v324h225v86h-225v159l44 45h305v86h-341z" />
    <glyph glyph-name="G" unicode="G" 
d="M150 700l-84 -88v-492l80 -120h376v349l-44 67h-191v-86h141v-244h-237l-32 49v452l26 27h206l56 -83l61 61l-72 108h-286z" />
    <glyph glyph-name="Gbreve" unicode="&#x11e;" 
d="M150 700l-84 -88v-492l80 -120h376v349l-44 67h-191v-86h141v-244h-237l-32 49v452l26 27h206l56 -83l61 61l-72 108h-286zM126 845v62h110v-93h128v93h110v-62l-104 -105h-140z" />
    <glyph glyph-name="uni0122" unicode="&#x122;" 
d="M150 700l-84 -88v-492l80 -120h376v349l-44 67h-191v-86h141v-244h-237l-32 49v452l26 27h206l56 -83l61 61l-72 108h-286zM252 -283l132 185l-83 45l-108 -195z" />
    <glyph glyph-name="Gdotaccent" unicode="&#x120;" 
d="M150 700l-84 -88v-492l80 -120h376v349l-44 67h-191v-86h141v-244h-237l-32 49v452l26 27h206l56 -83l61 61l-72 108h-286zM243 740v114h114v-114h-114z" />
    <glyph glyph-name="H" unicode="H" 
d="M71 700h94v-325l72 42h125l72 -42v325h95v-700h-95v280l-34 51h-209l-26 -27v-304h-94v700z" />
    <glyph glyph-name="Hbar" unicode="&#x126;" 
d="M71 700h94v-325l72 42h125l72 -42v325h95v-700h-95v280l-34 51h-209l-26 -27v-304h-94v700zM600 502h-600v86h600v-86z" />
    <glyph glyph-name="I" unicode="I" 
d="M72 700v-86h181v-528h-181v-86h456v86h-181v528h181v86h-456z" />
    <glyph glyph-name="IJ" unicode="&#x132;" 
d="M18 707v-85h139l35 -53v-569h95v579l41 43h142l-36 -47v-544l-108 -114h-134v-86h171l165 173v618h54v85h-290l-51 -52l-38 52h-185z" />
    <glyph glyph-name="Iacute" unicode="&#xcd;" 
d="M72 700v-86h181v-528h-181v-86h456v86h-181v528h181v86h-456zM212 761l205 99l-55 77l-186 -122z" />
    <glyph glyph-name="Icircumflex" unicode="&#xce;" 
d="M72 700v-86h181v-528h-181v-86h456v86h-181v528h181v86h-456zM325 917h-49l-143 -108l48 -52l118 74l120 -74l47 52z" />
    <glyph glyph-name="Idieresis" unicode="&#xcf;" 
d="M72 700v-86h181v-528h-181v-86h456v86h-181v528h181v86h-456zM140 763v110h110v-110h-110zM350 763v110h110v-110h-110z" />
    <glyph glyph-name="Idotaccent" unicode="&#x130;" 
d="M72 700v-86h181v-528h-181v-86h456v86h-181v528h181v86h-456zM243 764v114h114v-114h-114z" />
    <glyph glyph-name="Igrave" unicode="&#xcc;" 
d="M72 700v-86h181v-528h-181v-86h456v86h-181v528h181v86h-456zM388 759l36 54l-186 122l-55 -77z" />
    <glyph glyph-name="Imacron" unicode="&#x12a;" 
d="M72 700v-86h181v-528h-181v-86h456v86h-181v528h181v86h-456zM438 764h-276v86h276v-86z" />
    <glyph glyph-name="Iogonek" unicode="&#x12e;" 
d="M72 700v-86h181v-528h-181v-86h456v86h-181v528h181v86h-456zM347 -112h-100l100 122l-87 10l-87 -95v-41l80 -67h94v71z" />
    <glyph glyph-name="J" unicode="J" 
d="M109 700v-86h289v-486l-108 -115h-101v-85h137l165 173v599h-382z" />
    <glyph glyph-name="K" unicode="K" 
d="M435 700l-312 -322v322h-93v-700h93v255l100 103l246 -358h102l-286 421l274 279h-124z" />
    <glyph glyph-name="uni0136" unicode="&#x136;" 
d="M435 700l-312 -322v322h-93v-700h93v255l100 103l246 -358h102l-286 421l274 279h-124zM252 -283l132 185l-83 45l-108 -195z" />
    <glyph glyph-name="L" unicode="L" 
d="M71 700v-571l86 -129h372v159h-95v-73h-231l-38 55v559h-94z" />
    <glyph glyph-name="Lacute" unicode="&#x139;" 
d="M71 700v-571l86 -129h372v159h-95v-73h-231l-38 55v559h-94zM31 747l205 99l-55 77l-186 -122z" />
    <glyph glyph-name="Lcaron" unicode="&#x13d;" 
d="M71 700v-571l86 -129h372v159h-95v-73h-231l-38 55v559h-94zM351 734l119 -17l-78 -232l-78 16z" />
    <glyph glyph-name="uni013B" unicode="&#x13b;" 
d="M71 700v-571l86 -129h372v159h-95v-73h-231l-38 55v559h-94zM252 -283l132 185l-83 45l-108 -195z" />
    <glyph glyph-name="Lslash" unicode="&#x141;" 
d="M71 700v-571l86 -129h372v159h-95v-73h-231l-38 55v559h-94zM372 644l-244 -719l80 -27l244 719z" />
    <glyph glyph-name="M" unicode="M" 
d="M72 700v-700h94v532l89 -132v-6h87v81l92 101v-576h95v700h-95l-163 -178l-105 156v22h-94z" />
    <glyph glyph-name="N" unicode="N" 
d="M434 700v-293l-194 293h-168v-700h94v608h29l239 -357v-251h95v700h-95z" />
    <glyph glyph-name="Nacute" unicode="&#x143;" 
d="M434 700v-293l-194 293h-168v-700h94v608h29l239 -357v-251h95v700h-95zM212 737l205 99l-55 77l-186 -122z" />
    <glyph glyph-name="Ncaron" unicode="&#x147;" 
d="M434 700v-293l-194 293h-168v-700h94v608h29l239 -357v-251h95v700h-95zM325 740l141 107l-47 53l-120 -74l-118 74l-48 -53l143 -107h49z" />
    <glyph glyph-name="uni0145" unicode="&#x145;" 
d="M434 700v-293l-194 293h-168v-700h94v608h29l239 -357v-251h95v700h-95zM252 -283l132 185l-83 45l-108 -195z" />
    <glyph glyph-name="Ntilde" unicode="&#xd1;" 
d="M434 700v-293l-194 293h-168v-700h94v608h29l239 -357v-251h95v700h-95zM469 868l-81 -49l-185 49l-109 -65l37 -63l85 52l181 -52l109 65z" />
    <glyph glyph-name="O" unicode="O" 
d="M157 700h289l82 -125v-488l-83 -87h-289l-84 125v488zM165 139l36 -53h207l26 28v447l-35 53h-207l-27 -28v-447z" />
    <glyph glyph-name="Oacute" unicode="&#xd3;" 
d="M157 700h289l82 -125v-488l-83 -87h-289l-84 125v488zM165 139l36 -53h207l26 28v447l-35 53h-207l-27 -28v-447zM212 737l205 99l-55 77l-186 -122z" />
    <glyph glyph-name="Ocircumflex" unicode="&#xd4;" 
d="M157 700h289l82 -125v-488l-83 -87h-289l-84 125v488zM165 139l36 -53h207l26 28v447l-35 53h-207l-27 -28v-447zM325 893h-49l-143 -108l48 -52l118 74l120 -74l47 52z" />
    <glyph glyph-name="Odieresis" unicode="&#xd6;" 
d="M157 700h289l82 -125v-488l-83 -87h-289l-84 125v488zM165 139l36 -53h207l26 28v447l-35 53h-207l-27 -28v-447zM140 739v110h110v-110h-110zM350 739v110h110v-110h-110z" />
    <glyph glyph-name="Ograve" unicode="&#xd2;" 
d="M157 700h289l82 -125v-488l-83 -87h-289l-84 125v488zM165 139l36 -53h207l26 28v447l-35 53h-207l-27 -28v-447zM388 735l36 54l-186 122l-55 -77z" />
    <glyph glyph-name="Ohungarumlaut" unicode="&#x150;" 
d="M157 700h289l82 -125v-488l-83 -87h-289l-84 125v488zM165 139l36 -53h207l26 28v447l-35 53h-207l-27 -28v-447zM233 734l138 181l-86 47l-110 -194zM386 734l157 165l-80 56l-132 -180z" />
    <glyph glyph-name="Oslash" unicode="&#xd8;" 
d="M157 700h289l82 -125v-488l-83 -87h-289l-84 125v488zM165 139l36 -53h207l26 28v447l-35 53h-207l-27 -28v-447zM420 785l80 -27l-293 -862l-80 27z" />
    <glyph glyph-name="Otilde" unicode="&#xd5;" 
d="M157 700h289l82 -125v-488l-83 -87h-289l-84 125v488zM165 139l36 -53h207l26 28v447l-35 53h-207l-27 -28v-447zM469 868l-81 -49l-185 49l-109 -65l37 -63l85 52l181 -52l109 65z" />
    <glyph glyph-name="OE" unicode="&#x152;" 
d="M92 592l27 29h139l35 -53v-454l-26 -28h-140l-35 53v453zM387 330h154v87h-154v165l-26 39h241v86h-519l-85 -87v-495l85 -125h519v86h-227l12 13v231z" />
    <glyph glyph-name="P" unicode="P" 
d="M72 700v-700h94v323h278l84 85v167l-83 125h-373zM166 614h233l35 -54v-125l-27 -27h-168l-73 -43v249z" />
    <glyph glyph-name="Thorn" unicode="&#xde;" 
d="M72 745v-745h94v141l73 -42h204l85 88v314l-85 126h-206l-71 -43v161h-94zM166 512l28 28h204l36 -53v-275l-26 -28h-242v328z" />
    <glyph glyph-name="Q" unicode="Q" 
d="M158 700l-86 -88v-488l85 -124h257l31 -43l70 48l-124 185l-71 -48l38 -56h-156l-36 53v448l26 27h206l35 -52v-430l95 97v346l-85 125h-285z" />
    <glyph glyph-name="R" unicode="R" 
d="M71 700v-700h94v366l70 -43h102l97 -143v-180h95v193l-97 141l97 99v105l-111 162h-347zM165 614h206l63 -91v-67l-47 -47h-222v205z" />
    <glyph glyph-name="Racute" unicode="&#x154;" 
d="M71 700v-700h94v366l70 -43h102l97 -143v-180h95v193l-97 141l97 99v105l-111 162h-347zM165 614h206l63 -91v-67l-47 -47h-222v205zM212 737l205 99l-55 77l-186 -122z" />
    <glyph glyph-name="Rcaron" unicode="&#x158;" 
d="M71 700v-700h94v366l70 -43h102l97 -143v-180h95v193l-97 141l97 99v105l-111 162h-347zM165 614h206l63 -91v-67l-47 -47h-222v205zM325 740l141 107l-47 53l-120 -74l-118 74l-48 -53l143 -107h49z" />
    <glyph glyph-name="S" unicode="S" 
d="M157 700h289l58 -89l-61 -60l-43 63h-207l-26 -27v-125l36 -54h252l74 -111v-220l-74 -77h-335l-49 69l60 63l33 -46h252l19 17v182l-26 38h-253l-83 124v166z" />
    <glyph glyph-name="Sacute" unicode="&#x15a;" 
d="M157 700h289l58 -89l-61 -60l-43 63h-207l-26 -27v-125l36 -54h252l74 -111v-220l-74 -77h-335l-49 69l60 63l33 -46h252l19 17v182l-26 38h-253l-83 124v166zM212 737l205 99l-55 77l-186 -122z" />
    <glyph glyph-name="Scaron" unicode="&#x160;" 
d="M157 700h289l58 -89l-61 -60l-43 63h-207l-26 -27v-125l36 -54h252l74 -111v-220l-74 -77h-335l-49 69l60 63l33 -46h252l19 17v182l-26 38h-253l-83 124v166zM325 740l141 107l-47 53l-120 -74l-118 74l-48 -53l143 -107h49z" />
    <glyph glyph-name="Scedilla" unicode="&#x15e;" 
d="M157 700h289l58 -89l-61 -60l-43 63h-207l-26 -27v-125l36 -54h252l74 -111v-220l-74 -77h-335l-49 69l60 63l33 -46h252l19 17v182l-26 38h-253l-83 124v166zM243 -114h100l-100 122h97l77 -85v-41l-80 -66h-94v70z" />
    <glyph glyph-name="uni0218" unicode="&#x218;" 
d="M157 700h289l58 -89l-61 -60l-43 63h-207l-26 -27v-125l36 -54h252l74 -111v-220l-74 -77h-335l-49 69l60 63l33 -46h252l19 17v182l-26 38h-253l-83 124v166zM252 -283l132 185l-83 45l-108 -195z" />
    <glyph glyph-name="uni1E9E" unicode="&#x1e9e;" 
d="M236 714l-165 -171v-543h95v516l107 112h143l-194 -200v-91h149l63 -93v-126l-31 -32h-118v-86h154l89 91v166l-112 166h-77l190 198v93h-293z" />
    <glyph glyph-name="T" unicode="T" 
d="M39 700h522v-86h-287l74 -51v-563h-95v547l-35 67h-179v86z" />
    <glyph glyph-name="Tcaron" unicode="&#x164;" 
d="M39 700h522v-86h-287l74 -51v-563h-95v547l-35 67h-179v86zM325 740l141 107l-47 53l-120 -74l-118 74l-48 -53l143 -107h49z" />
    <glyph glyph-name="uni021A" unicode="&#x21a;" 
d="M39 700h522v-86h-287l74 -51v-563h-95v547l-35 67h-179v86zM252 -283l132 185l-83 45l-108 -195z" />
    <glyph glyph-name="U" unicode="U" 
d="M434 700v-586l-28 -28h-205l-36 53v561h-94v-575l85 -125h207l71 44v-44h95v700h-95z" />
    <glyph glyph-name="Uacute" unicode="&#xda;" 
d="M434 700v-586l-28 -28h-205l-36 53v561h-94v-575l85 -125h207l71 44v-44h95v700h-95zM212 737l205 99l-55 77l-186 -122z" />
    <glyph glyph-name="Ucircumflex" unicode="&#xdb;" 
d="M434 700v-586l-28 -28h-205l-36 53v561h-94v-575l85 -125h207l71 44v-44h95v700h-95zM325 893h-49l-143 -108l48 -52l118 74l120 -74l47 52z" />
    <glyph glyph-name="Udieresis" unicode="&#xdc;" 
d="M434 700v-586l-28 -28h-205l-36 53v561h-94v-575l85 -125h207l71 44v-44h95v700h-95zM140 739v110h110v-110h-110zM350 739v110h110v-110h-110z" />
    <glyph glyph-name="Ugrave" unicode="&#xd9;" 
d="M434 700v-586l-28 -28h-205l-36 53v561h-94v-575l85 -125h207l71 44v-44h95v700h-95zM388 735l36 54l-186 122l-55 -77z" />
    <glyph glyph-name="Uhungarumlaut" unicode="&#x170;" 
d="M434 700v-586l-28 -28h-205l-36 53v561h-94v-575l85 -125h207l71 44v-44h95v700h-95zM233 734l138 181l-86 47l-110 -194zM386 734l157 165l-80 56l-132 -180z" />
    <glyph glyph-name="Umacron" unicode="&#x16a;" 
d="M434 700v-586l-28 -28h-205l-36 53v561h-94v-575l85 -125h207l71 44v-44h95v700h-95zM438 740h-276v86h276v-86z" />
    <glyph glyph-name="Uogonek" unicode="&#x172;" 
d="M434 700v-586l-28 -28h-205l-36 53v561h-94v-575l85 -125h207l71 44v-44h95v700h-95zM529 -122h-100l100 122l-87 10l-87 -95v-41l80 -67h94v71z" />
    <glyph glyph-name="Uring" unicode="&#x16e;" 
d="M434 700v-586l-28 -28h-205l-36 53v561h-94v-575l85 -125h207l71 44v-44h95v700h-95zM253 960l-63 -64v-93l63 -63h92l65 63v93l-65 64h-92zM278 901h43l31 -30v-43l-31 -29h-43l-30 29v43z" />
    <glyph glyph-name="V" unicode="V" 
d="M434 700v-444l-161 -167l-107 161v450h-94v-465l159 -235h76l221 230v470h-94z" />
    <glyph glyph-name="W" unicode="W" 
d="M51 700v-561l94 -139h86l76 80l52 -80h91l98 100v600h-95v-570l-32 -35h-17l-57 86v237h-95v-266l-54 -57h-19l-34 55v550h-94z" />
    <glyph glyph-name="Wacute" unicode="&#x1e82;" 
d="M51 700v-561l94 -139h86l76 80l52 -80h91l98 100v600h-95v-570l-32 -35h-17l-57 86v237h-95v-266l-54 -57h-19l-34 55v550h-94zM212 737l205 99l-55 77l-186 -122z" />
    <glyph glyph-name="Wcircumflex" unicode="&#x174;" 
d="M51 700v-561l94 -139h86l76 80l52 -80h91l98 100v600h-95v-570l-32 -35h-17l-57 86v237h-95v-266l-54 -57h-19l-34 55v550h-94zM325 893h-49l-143 -108l48 -52l118 74l120 -74l47 52z" />
    <glyph glyph-name="Wdieresis" unicode="&#x1e84;" 
d="M51 700v-561l94 -139h86l76 80l52 -80h91l98 100v600h-95v-570l-32 -35h-17l-57 86v237h-95v-266l-54 -57h-19l-34 55v550h-94zM140 739v110h110v-110h-110zM350 739v110h110v-110h-110z" />
    <glyph glyph-name="Wgrave" unicode="&#x1e80;" 
d="M51 700v-561l94 -139h86l76 80l52 -80h91l98 100v600h-95v-570l-32 -35h-17l-57 86v237h-95v-266l-54 -57h-19l-34 55v550h-94zM388 735l36 54l-186 122l-55 -77z" />
    <glyph glyph-name="X" unicode="X" 
d="M428 700v-171l-113 -118h-88l-55 82v207h-94v-221l99 -145l-99 -100v-234h94v206l113 118h86l57 -80v-244h94v259l-99 144l99 101v196h-94z" />
    <glyph glyph-name="Y" unicode="Y" 
d="M433 700h95v-174l-182 -187v-339h-94v330l-181 269v101h94v-88l133 -198h2l133 139v147z" />
    <glyph glyph-name="Yacute" unicode="&#xdd;" 
d="M433 700h95v-174l-182 -187v-339h-94v330l-181 269v101h94v-88l133 -198h2l133 139v147zM212 737l205 99l-55 77l-186 -122z" />
    <glyph glyph-name="Ycircumflex" unicode="&#x176;" 
d="M433 700h95v-174l-182 -187v-339h-94v330l-181 269v101h94v-88l133 -198h2l133 139v147zM325 893h-49l-143 -108l48 -52l118 74l120 -74l47 52z" />
    <glyph glyph-name="Ydieresis" unicode="&#x178;" 
d="M433 700h95v-174l-182 -187v-339h-94v330l-181 269v101h94v-88l133 -198h2l133 139v147zM140 739v110h110v-110h-110zM350 739v110h110v-110h-110z" />
    <glyph glyph-name="Ygrave" unicode="&#x1ef2;" 
d="M433 700h95v-174l-182 -187v-339h-94v330l-181 269v101h94v-88l133 -198h2l133 139v147zM388 735l36 54l-186 122l-55 -77z" />
    <glyph glyph-name="Z" unicode="Z" 
d="M71 700v-86h363v-77l-90 -96l38 -24h-170v-86h23l-164 -170v-161h458v86h-364v50l167 173l-36 22h159v86h-16l90 93v190h-458z" />
    <glyph glyph-name="Zacute" unicode="&#x179;" 
d="M71 700v-86h363v-77l-90 -96l38 -24h-170v-86h23l-164 -170v-161h458v86h-364v50l167 173l-36 22h159v86h-16l90 93v190h-458zM212 737l205 99l-55 77l-186 -122z" />
    <glyph glyph-name="Zcaron" unicode="&#x17d;" 
d="M71 700v-86h363v-77l-90 -96l38 -24h-170v-86h23l-164 -170v-161h458v86h-364v50l167 173l-36 22h159v86h-16l90 93v190h-458zM325 740l141 107l-47 53l-120 -74l-118 74l-48 -53l143 -107h49z" />
    <glyph glyph-name="Zdotaccent" unicode="&#x17b;" 
d="M71 700v-86h363v-77l-90 -96l38 -24h-170v-86h23l-164 -170v-161h458v86h-364v50l167 173l-36 22h159v86h-16l90 93v190h-458zM243 740v114h114v-114h-114z" />
    <glyph glyph-name="a" unicode="a" 
d="M148 553v-86h290v-131h-215l-158 -164v-44l86 -128h212l75 45v-45h96v457l-65 96h-321zM163 142v6l97 100h176v-160h-241z" />
    <glyph glyph-name="aacute" unicode="&#xe1;" 
d="M148 553v-86h290v-131h-215l-158 -164v-44l86 -128h212l75 45v-45h96v457l-65 96h-321zM163 142v6l97 100h176v-160h-241zM229 603l205 99l-55 77l-186 -122z" />
    <glyph glyph-name="abreve" unicode="&#x103;" 
d="M148 553v-86h290v-131h-215l-158 -164v-44l86 -128h212l75 45v-45h96v457l-65 96h-321zM163 142v6l97 100h176v-160h-241zM143 711v62h110v-93h128v93h110v-62l-104 -105h-140z" />
    <glyph glyph-name="acircumflex" unicode="&#xe2;" 
d="M148 553v-86h290v-131h-215l-158 -164v-44l86 -128h212l75 45v-45h96v457l-65 96h-321zM163 142v6l97 100h176v-160h-241zM342 760h-49l-143 -108l48 -52l118 74l120 -74l47 52z" />
    <glyph glyph-name="adieresis" unicode="&#xe4;" 
d="M148 553v-86h290v-131h-215l-158 -164v-44l86 -128h212l75 45v-45h96v457l-65 96h-321zM163 142v6l97 100h176v-160h-241zM157 606v110h110v-110h-110zM367 606v110h110v-110h-110z" />
    <glyph glyph-name="agrave" unicode="&#xe0;" 
d="M148 553v-86h290v-131h-215l-158 -164v-44l86 -128h212l75 45v-45h96v457l-65 96h-321zM163 142v6l97 100h176v-160h-241zM405 601l36 54l-186 122l-55 -77z" />
    <glyph glyph-name="amacron" unicode="&#x101;" 
d="M148 553v-86h290v-131h-215l-158 -164v-44l86 -128h212l75 45v-45h96v457l-65 96h-321zM163 142v6l97 100h176v-160h-241zM455 606h-276v86h276v-86z" />
    <glyph glyph-name="aogonek" unicode="&#x105;" 
d="M148 553v-86h290v-131h-215l-158 -164v-44l86 -128h212l75 45v-45h96v457l-65 96h-321zM163 142v6l97 100h176v-160h-241zM534 -122h-100l100 122l-87 10l-87 -95v-41l80 -67h94v71z" />
    <glyph glyph-name="aring" unicode="&#xe5;" 
d="M148 553v-86h290v-131h-215l-158 -164v-44l86 -128h212l75 45v-45h96v457l-65 96h-321zM163 142v6l97 100h176v-160h-241zM270 826l-63 -64v-93l63 -63h92l65 63v93l-65 64h-92zM295 767h43l31 -30v-43l-31 -29h-43l-30 29v43z" />
    <glyph glyph-name="atilde" unicode="&#xe3;" 
d="M148 553v-86h290v-131h-215l-158 -164v-44l86 -128h212l75 45v-45h96v457l-65 96h-321zM163 142v6l97 100h176v-160h-241zM486 734l-81 -49l-185 49l-109 -65l37 -63l85 52l181 -52l109 65z" />
    <glyph glyph-name="ae" unicode="&#xe6;" 
d="M78 544v-85h178v-132h-105l-154 -159v-43l84 -125h182l31 62l42 -62h180l76 78l-50 72l-62 -64h-97l-35 53v102h84l171 177l-86 126h-181l-31 -33l-22 33h-205zM348 431l27 28h96l22 -31l-96 -101h-49v104zM91 139v6l97 96h68v-112l-27 -43h-104z" />
    <glyph glyph-name="b" unicode="b" 
d="M73 755v-755h93v43l74 -43h204l86 88v324l-85 127h-208l-71 -44v260h-93zM166 423l28 29h206l36 -53v-285l-27 -28h-243v337z" />
    <glyph glyph-name="c" unicode="c" 
d="M158 538h287l75 -111l-60 -63l-59 88h-205l-28 -29v-287l37 -54h204l62 64l47 -70l-73 -76h-287l-83 124v328z" />
    <glyph glyph-name="cacute" unicode="&#x107;" 
d="M158 538h287l75 -111l-60 -63l-59 88h-205l-28 -29v-287l37 -54h204l62 64l47 -70l-73 -76h-287l-83 124v328zM212 616l205 99l-55 77l-186 -122z" />
    <glyph glyph-name="ccaron" unicode="&#x10d;" 
d="M158 538h287l75 -111l-60 -63l-59 88h-205l-28 -29v-287l37 -54h204l62 64l47 -70l-73 -76h-287l-83 124v328zM325 619l141 107l-47 53l-120 -74l-118 74l-48 -53l143 -107h49z" />
    <glyph glyph-name="ccedilla" unicode="&#xe7;" 
d="M158 538h287l75 -111l-60 -63l-59 88h-205l-28 -29v-287l37 -54h204l62 64l47 -70l-73 -76h-287l-83 124v328zM243 -114h100l-100 122h97l77 -85v-41l-80 -66h-94v70z" />
    <glyph glyph-name="cdotaccent" unicode="&#x10b;" 
d="M158 538h287l75 -111l-60 -63l-59 88h-205l-28 -29v-287l37 -54h204l62 64l47 -70l-73 -76h-287l-83 124v328zM243 619v114h114v-114h-114z" />
    <glyph glyph-name="d" unicode="d" 
d="M437 755h94v-755h-94v43l-72 -43h-204l-86 126v324l84 89h206l72 -43v259zM169 139l35 -53h207l26 26v288l-35 52h-206l-27 -28v-285z" />
    <glyph glyph-name="eth" unicode="&#xf0;" 
d="M160 735l-27 -79l107 -36l-63 -63l62 -60l78 77l87 -90l22 -84l-122 69l-168 -64l-71 -190l71 -189l169 -73l168 73l62 186v106l-56 206l-105 110l60 63l-62 60l-70 -71zM202 89l-48 126l50 132l94 35l149 -84l3 -71l-46 -138l-99 -45z" />
    <glyph glyph-name="dcaron" unicode="&#x10f;" 
d="M437 755h94v-755h-94v43l-72 -43h-204l-86 126v324l84 89h206l72 -43v259zM169 139l35 -53h207l26 26v288l-35 52h-206l-27 -28v-285zM620 810l119 -17l-78 -232l-78 16z" />
    <glyph glyph-name="dcroat" unicode="&#x111;" 
d="M437 755h94v-755h-94v43l-72 -43h-204l-86 126v324l84 89h206l72 -43v259zM169 139l35 -53h207l26 26v288l-35 52h-206l-27 -28v-285zM602 601h-260v86h260v-86z" />
    <glyph glyph-name="e" unicode="e" 
d="M156 538l-83 -86v-329l83 -123h285l74 76l-52 66l-56 -55h-205l-37 54v99h193l169 174l-86 124h-285zM165 422l29 30h199l22 -34l-92 -97h-158v101z" />
    <glyph glyph-name="eacute" unicode="&#xe9;" 
d="M156 538l-83 -86v-329l83 -123h285l74 76l-52 66l-56 -55h-205l-37 54v99h193l169 174l-86 124h-285zM165 422l29 30h199l22 -34l-92 -97h-158v101zM210 603l205 99l-55 77l-186 -122z" />
    <glyph glyph-name="ecaron" unicode="&#x11b;" 
d="M156 538l-83 -86v-329l83 -123h285l74 76l-52 66l-56 -55h-205l-37 54v99h193l169 174l-86 124h-285zM165 422l29 30h199l22 -34l-92 -97h-158v101zM323 606l141 107l-47 53l-120 -74l-118 74l-48 -53l143 -107h49z" />
    <glyph glyph-name="ecircumflex" unicode="&#xea;" 
d="M156 538l-83 -86v-329l83 -123h285l74 76l-52 66l-56 -55h-205l-37 54v99h193l169 174l-86 124h-285zM165 422l29 30h199l22 -34l-92 -97h-158v101zM323 760h-49l-143 -108l48 -52l118 74l120 -74l47 52z" />
    <glyph glyph-name="edieresis" unicode="&#xeb;" 
d="M156 538l-83 -86v-329l83 -123h285l74 76l-52 66l-56 -55h-205l-37 54v99h193l169 174l-86 124h-285zM165 422l29 30h199l22 -34l-92 -97h-158v101zM138 606v110h110v-110h-110zM348 606v110h110v-110h-110z" />
    <glyph glyph-name="edotaccent" unicode="&#x117;" 
d="M156 538l-83 -86v-329l83 -123h285l74 76l-52 66l-56 -55h-205l-37 54v99h193l169 174l-86 124h-285zM165 422l29 30h199l22 -34l-92 -97h-158v101zM241 607v114h114v-114h-114z" />
    <glyph glyph-name="egrave" unicode="&#xe8;" 
d="M156 538l-83 -86v-329l83 -123h285l74 76l-52 66l-56 -55h-205l-37 54v99h193l169 174l-86 124h-285zM165 422l29 30h199l22 -34l-92 -97h-158v101zM386 601l36 54l-186 122l-55 -77z" />
    <glyph glyph-name="emacron" unicode="&#x113;" 
d="M156 538l-83 -86v-329l83 -123h285l74 76l-52 66l-56 -55h-205l-37 54v99h193l169 174l-86 124h-285zM165 422l29 30h199l22 -34l-92 -97h-158v101zM436 606h-276v86h276v-86z" />
    <glyph glyph-name="eogonek" unicode="&#x119;" 
d="M156 538l-83 -86v-329l83 -123h285l74 76l-52 66l-56 -55h-205l-37 54v99h193l169 174l-86 124h-285zM165 422l29 30h199l22 -34l-92 -97h-158v101zM345 -112h-100l100 122l-87 10l-87 -95v-41l80 -67h94v71z" />
    <glyph glyph-name="f" unicode="f" 
d="M248 700l-96 -98v-185h-80v-86h80v-331h94v331h186v86h-186v157l40 40h146l35 -52l61 62l-54 76h-226z" />
    <glyph glyph-name="g" unicode="g" 
d="M231 48h187l14 -23v-71l-78 -78h-139l-35 52v71zM177 423l39 42h182l35 -50v-81l-76 -46h-180v135zM362 200l165 102v250h-94v-43l-72 43h-181l-97 -102v-197l39 -25l-51 -51l68 -103l-55 -55v-107l87 -123h219l138 138v108l-64 100h-265l-19 32l33 33h149z" />
    <glyph glyph-name="gbreve" unicode="&#x11f;" 
d="M231 48h187l14 -23v-71l-78 -78h-139l-35 52v71zM177 423l39 42h182l35 -50v-81l-76 -46h-180v135zM362 200l165 102v250h-94v-43l-72 43h-181l-97 -102v-197l39 -25l-51 -51l68 -103l-55 -55v-107l87 -123h219l138 138v108l-64 100h-265l-19 32l33 33h149zM106 701v62
h110v-93h128v93h110v-62l-104 -105h-140z" />
    <glyph glyph-name="uni0123" unicode="&#x123;" 
d="M231 48h187l14 -23v-71l-78 -78h-139l-35 52v71zM177 423l39 42h182l35 -50v-81l-76 -46h-180v135zM362 200l165 102v250h-94v-43l-72 43h-181l-97 -102v-197l39 -25l-51 -51l68 -103l-55 -55v-107l87 -123h219l138 138v108l-64 100h-265l-19 32l33 33h149zM337 623v113
h-60v54l49 52l-48 44l-65 -65v-198h124z" />
    <glyph glyph-name="gdotaccent" unicode="&#x121;" 
d="M231 48h187l14 -23v-71l-78 -78h-139l-35 52v71zM177 423l39 42h182l35 -50v-81l-76 -46h-180v135zM362 200l165 102v250h-94v-43l-72 43h-181l-97 -102v-197l39 -25l-51 -51l68 -103l-55 -55v-107l87 -123h219l138 138v108l-64 100h-265l-19 32l33 33h149zM223 596v114
h114v-114h-114z" />
    <glyph glyph-name="h" unicode="h" 
d="M72 756h94v-261l71 43h205l87 -123v-415h-95v401l-35 51h-204l-29 -27v-425h-94v756z" />
    <glyph glyph-name="hbar" unicode="&#x127;" 
d="M72 756h94v-261l71 43h205l87 -123v-415h-95v401l-35 51h-204l-29 -27v-425h-94v756zM260 607h-260v86h260v-86z" />
    <glyph glyph-name="i" unicode="i" 
d="M113 557v-85h106l35 -53v-335h-182v-84h456v84h-182v349l-83 124h-150zM243 680v114h114v-114h-114z" />
    <glyph glyph-name="dotlessi" unicode="&#x131;" 
d="M113 557v-85h106l35 -53v-335h-182v-84h456v84h-182v349l-83 124h-150z" />
    <glyph glyph-name="iacute" unicode="&#xed;" 
d="M113 557v-85h106l35 -53v-335h-182v-84h456v84h-182v349l-83 124h-150zM212 677l205 99l-55 77l-186 -122z" />
    <glyph glyph-name="icircumflex" unicode="&#xee;" 
d="M113 557v-85h106l35 -53v-335h-182v-84h456v84h-182v349l-83 124h-150zM325 833h-49l-143 -108l48 -52l118 74l120 -74l47 52z" />
    <glyph glyph-name="idieresis" unicode="&#xef;" 
d="M113 557v-85h106l35 -53v-335h-182v-84h456v84h-182v349l-83 124h-150zM140 679v110h110v-110h-110zM350 679v110h110v-110h-110z" />
    <glyph glyph-name="i.loclTRK" 
d="M113 557v-85h106l35 -53v-335h-182v-84h456v84h-182v349l-83 124h-150zM243 680v114h114v-114h-114z" />
    <glyph glyph-name="igrave" unicode="&#xec;" 
d="M113 557v-85h106l35 -53v-335h-182v-84h456v84h-182v349l-83 124h-150zM388 675l36 54l-186 122l-55 -77z" />
    <glyph glyph-name="ij" unicode="&#x133;" 
d="M71 589h115v111h-115v-111zM414 589h115v111h-115v-111zM423 488v-459l-247 53v406h-94v-463l340 -86v-13l-107 -107h-125v-86h161l167 172v583h-95z" />
    <glyph glyph-name="imacron" unicode="&#x12b;" 
d="M113 557v-85h106l35 -53v-335h-182v-84h456v84h-182v349l-83 124h-150zM438 680h-276v86h276v-86z" />
    <glyph glyph-name="iogonek" unicode="&#x12f;" 
d="M113 557v-85h106l35 -53v-335h-182v-84h456v84h-182v349l-83 124h-150zM243 680v114h114v-114h-114zM347 -112h-100l100 122l-87 10l-87 -95v-41l80 -67h94v71z" />
    <glyph glyph-name="j" unicode="j" 
d="M233 553h221v-491l-167 -172h-140v85h105l108 113v381h-127v84zM290 684v114h114v-114h-114z" />
    <glyph glyph-name="uni0237" unicode="&#x237;" 
d="M233 553h221v-491l-167 -172h-140v85h105l108 113v381h-127v84z" />
    <glyph glyph-name="k" unicode="k" 
d="M72 748v-748h94v239l100 103l168 -246v-96h95v109l-201 297l159 163h-120l-201 -208v387h-94z" />
    <glyph glyph-name="uni0137" unicode="&#x137;" 
d="M72 748v-748h94v239l100 103l168 -246v-96h95v109l-201 297l159 163h-120l-201 -208v387h-94zM253 -296l132 185l-83 45l-108 -195z" />
    <glyph glyph-name="l" unicode="l" 
d="M78 748v-85h141v-539l84 -124h217l1 85h-173l-35 53v559l-85 51h-150z" />
    <glyph glyph-name="lacute" unicode="&#x13a;" 
d="M78 748v-85h141v-539l84 -124h217l1 85h-173l-35 53v559l-85 51h-150zM181 812l205 99l-55 77l-186 -122z" />
    <glyph glyph-name="lcaron" unicode="&#x13e;" 
d="M78 748v-85h141v-539l84 -124h217l1 85h-173l-35 53v559l-85 51h-150zM451 734l119 -17l-78 -232l-78 16z" />
    <glyph glyph-name="uni013C" unicode="&#x13c;" 
d="M78 748v-85h141v-539l84 -124h217l1 85h-173l-35 53v559l-85 51h-150zM319 -313l132 185l-83 45l-108 -195z" />
    <glyph glyph-name="lslash" unicode="&#x142;" 
d="M78 748v-85h141v-539l84 -124h217l1 85h-173l-35 53v559l-85 51h-150zM478 644l-433 -624l69 -49l433 624z" />
    <glyph glyph-name="m" unicode="m" 
d="M52 538v-538h94v423l27 29h46l35 -52v-123h95v146l26 29h45l34 -52v-400h95v414l-84 124h-45l-111 -67l-44 67h-48l-71 -43v43h-94z" />
    <glyph glyph-name="n" unicode="n" 
d="M72 538v-538h94v424l27 28h206l35 -51v-401h95v415l-84 123h-207l-72 -43v43h-94z" />
    <glyph glyph-name="nacute" unicode="&#x144;" 
d="M72 538v-538h94v424l27 28h206l35 -51v-401h95v415l-84 123h-207l-72 -43v43h-94zM254 603l205 99l-55 77l-186 -122z" />
    <glyph glyph-name="ncaron" unicode="&#x148;" 
d="M72 538v-538h94v424l27 28h206l35 -51v-401h95v415l-84 123h-207l-72 -43v43h-94zM367 606l141 107l-47 53l-120 -74l-118 74l-48 -53l143 -107h49z" />
    <glyph glyph-name="uni0146" unicode="&#x146;" 
d="M72 538v-538h94v424l27 28h206l35 -51v-401h95v415l-84 123h-207l-72 -43v43h-94zM253 -296l132 185l-83 45l-108 -195z" />
    <glyph glyph-name="ntilde" unicode="&#xf1;" 
d="M72 538v-538h94v424l27 28h206l35 -51v-401h95v415l-84 123h-207l-72 -43v43h-94zM511 734l-81 -49l-185 49l-109 -65l37 -63l85 52l181 -52l109 65z" />
    <glyph glyph-name="o" unicode="o" 
d="M157 538h289l84 -125v-326l-84 -87h-288l-85 125v326zM166 139l36 -53h206l26 27v287l-35 52h-206l-27 -29v-284z" />
    <glyph glyph-name="oacute" unicode="&#xf3;" 
d="M157 538h289l84 -125v-326l-84 -87h-288l-85 125v326zM166 139l36 -53h206l26 27v287l-35 52h-206l-27 -29v-284zM213 603l205 99l-55 77l-186 -122z" />
    <glyph glyph-name="ocircumflex" unicode="&#xf4;" 
d="M157 538h289l84 -125v-326l-84 -87h-288l-85 125v326zM166 139l36 -53h206l26 27v287l-35 52h-206l-27 -29v-284zM326 760h-49l-143 -108l48 -52l118 74l120 -74l47 52z" />
    <glyph glyph-name="odieresis" unicode="&#xf6;" 
d="M157 538h289l84 -125v-326l-84 -87h-288l-85 125v326zM166 139l36 -53h206l26 27v287l-35 52h-206l-27 -29v-284zM141 606v110h110v-110h-110zM351 606v110h110v-110h-110z" />
    <glyph glyph-name="ograve" unicode="&#xf2;" 
d="M157 538h289l84 -125v-326l-84 -87h-288l-85 125v326zM166 139l36 -53h206l26 27v287l-35 52h-206l-27 -29v-284zM389 602l36 54l-186 122l-55 -77z" />
    <glyph glyph-name="ohungarumlaut" unicode="&#x151;" 
d="M157 538h289l84 -125v-326l-84 -87h-288l-85 125v326zM166 139l36 -53h206l26 27v287l-35 52h-206l-27 -29v-284zM234 601l138 181l-86 47l-110 -194zM387 601l157 165l-80 56l-132 -180z" />
    <glyph glyph-name="oslash" unicode="&#xf8;" 
d="M157 538h289l84 -125v-326l-84 -87h-288l-85 125v326zM166 139l36 -53h206l26 27v287l-35 52h-206l-27 -29v-284zM420 785l80 -27l-293 -862l-80 27z" />
    <glyph glyph-name="otilde" unicode="&#xf5;" 
d="M157 538h289l84 -125v-326l-84 -87h-288l-85 125v326zM166 139l36 -53h206l26 27v287l-35 52h-206l-27 -29v-284zM470 735l-81 -49l-185 49l-109 -65l37 -63l85 52l181 -52l109 65z" />
    <glyph glyph-name="oe" unicode="&#x153;" 
d="M84 538l-84 -87v-326l85 -125h180l43 46l31 -46h174l76 78l-49 72l-63 -64h-92l-36 53v96h81l170 176l-86 127h-175l-44 -45l-30 45h-181zM95 139v285l26 28h98l36 -52v-287l-27 -27h-97zM349 424l27 28h92l21 -31l-96 -100h-44v103z" />
    <glyph glyph-name="p" unicode="p" 
d="M237 538l-71 -44v44h-94v-754h94v259l72 -43h206l84 87v326l-82 125h-209zM166 139v285l27 27h205l35 -52v-287l-26 -27h-205z" />
    <glyph glyph-name="thorn" unicode="&#xfe;" 
d="M72 755v-953h94v241l73 -43h204l85 89v323l-85 127h-206l-71 -44v260h-94zM166 424l28 28h204l36 -53v-285l-26 -28h-242v338z" />
    <glyph glyph-name="q" unicode="q" 
d="M156 538l-84 -87v-326l84 -125h206l71 43v-259h95v753h-95v-43l-72 44h-205zM166 139v285l28 27h203l36 -51v-287l-27 -28h-204z" />
    <glyph glyph-name="r" unicode="r" 
d="M66 538v-86h65l36 -52v-315h-101v-85h336v85h-142v325l40 42h132l31 -47l71 48l-57 85h-213l-53 -55l-93 55h-52z" />
    <glyph glyph-name="racute" unicode="&#x155;" 
d="M66 538v-86h65l36 -52v-315h-101v-85h336v85h-142v325l40 42h132l31 -47l71 48l-57 85h-213l-53 -55l-93 55h-52zM281 603l205 99l-55 77l-186 -122z" />
    <glyph glyph-name="rcaron" unicode="&#x159;" 
d="M66 538v-86h65l36 -52v-315h-101v-85h336v85h-142v325l40 42h132l31 -47l71 48l-57 85h-213l-53 -55l-93 55h-52zM394 606l141 107l-47 53l-120 -74l-118 74l-48 -53l143 -107h49z" />
    <glyph glyph-name="s" unicode="s" 
d="M164 540h281l57 -84l-58 -62l-43 63h-197l-27 -24v-66l35 -49h235l71 -107v-132l-71 -79h-321l-44 69l58 61l30 -44h237l18 19v90l-26 37h-236l-79 119v111z" />
    <glyph glyph-name="sacute" unicode="&#x15b;" 
d="M164 540h281l57 -84l-58 -62l-43 63h-197l-27 -24v-66l35 -49h235l71 -107v-132l-71 -79h-321l-44 69l58 61l30 -44h237l18 19v90l-26 37h-236l-79 119v111zM215 603l205 99l-55 77l-186 -122z" />
    <glyph glyph-name="scaron" unicode="&#x161;" 
d="M164 540h281l57 -84l-58 -62l-43 63h-197l-27 -24v-66l35 -49h235l71 -107v-132l-71 -79h-321l-44 69l58 61l30 -44h237l18 19v90l-26 37h-236l-79 119v111zM328 606l141 107l-47 53l-120 -74l-118 74l-48 -53l143 -107h49z" />
    <glyph glyph-name="scedilla" unicode="&#x15f;" 
d="M164 540h281l57 -84l-58 -62l-43 63h-197l-27 -24v-66l35 -49h235l71 -107v-132l-71 -79h-321l-44 69l58 61l30 -44h237l18 19v90l-26 37h-236l-79 119v111zM229 -120h100l-100 122h97l77 -85v-41l-80 -66h-94v70z" />
    <glyph glyph-name="uni0219" unicode="&#x219;" 
d="M164 540h281l57 -84l-58 -62l-43 63h-197l-27 -24v-66l35 -49h235l71 -107v-132l-71 -79h-321l-44 69l58 61l30 -44h237l18 19v90l-26 37h-236l-79 119v111zM253 -296l132 185l-83 45l-108 -195z" />
    <glyph glyph-name="germandbls" unicode="&#xdf;" 
d="M238 718l-167 -175v-543h95v516l90 96l107 -68l-141 -116v-91h149l63 -93v-126l-31 -32h-118v-86h154l89 91v166l-112 166h-77l106 81v93z" />
    <glyph glyph-name="t" unicode="t" 
d="M171 748h94v-209h162v-87h-162v-313l35 -53h96l63 64l49 -71l-74 -79h-179l-84 123v329h-79v87h79v209z" />
    <glyph glyph-name="tcaron" unicode="&#x165;" 
d="M171 748h94v-209h162v-87h-162v-313l35 -53h96l63 64l49 -71l-74 -79h-179l-84 123v329h-79v87h79v209zM415 888l119 -17l-78 -232l-78 16z" />
    <glyph glyph-name="uni021B" unicode="&#x21b;" 
d="M171 748h94v-209h162v-87h-162v-313l35 -53h96l63 64l49 -71l-74 -79h-179l-84 123v329h-79v87h79v209zM297 -296l132 185l-83 45l-108 -195z" />
    <glyph glyph-name="u" unicode="u" 
d="M433 538v-425l-25 -27h-206l-36 53v399h-94v-413l85 -125h205l73 44v-44h93v538h-95z" />
    <glyph glyph-name="uacute" unicode="&#xfa;" 
d="M433 538v-425l-25 -27h-206l-36 53v399h-94v-413l85 -125h205l73 44v-44h93v538h-95zM212 603l205 99l-55 77l-186 -122z" />
    <glyph glyph-name="ucircumflex" unicode="&#xfb;" 
d="M433 538v-425l-25 -27h-206l-36 53v399h-94v-413l85 -125h205l73 44v-44h93v538h-95zM325 760h-49l-143 -108l48 -52l118 74l120 -74l47 52z" />
    <glyph glyph-name="udieresis" unicode="&#xfc;" 
d="M433 538v-425l-25 -27h-206l-36 53v399h-94v-413l85 -125h205l73 44v-44h93v538h-95zM140 606v110h110v-110h-110zM350 606v110h110v-110h-110z" />
    <glyph glyph-name="ugrave" unicode="&#xf9;" 
d="M433 538v-425l-25 -27h-206l-36 53v399h-94v-413l85 -125h205l73 44v-44h93v538h-95zM388 602l36 54l-186 122l-55 -77z" />
    <glyph glyph-name="uhungarumlaut" unicode="&#x171;" 
d="M433 538v-425l-25 -27h-206l-36 53v399h-94v-413l85 -125h205l73 44v-44h93v538h-95zM233 601l138 181l-86 47l-110 -194zM386 601l157 165l-80 56l-132 -180z" />
    <glyph glyph-name="umacron" unicode="&#x16b;" 
d="M433 538v-425l-25 -27h-206l-36 53v399h-94v-413l85 -125h205l73 44v-44h93v538h-95zM438 606h-276v86h276v-86z" />
    <glyph glyph-name="uogonek" unicode="&#x173;" 
d="M433 538v-425l-25 -27h-206l-36 53v399h-94v-413l85 -125h205l73 44v-44h93v538h-95zM528 -122h-100l100 122l-87 10l-87 -95v-41l80 -67h94v71z" />
    <glyph glyph-name="uring" unicode="&#x16f;" 
d="M433 538v-425l-25 -27h-206l-36 53v399h-94v-413l85 -125h205l73 44v-44h93v538h-95zM253 826l-63 -64v-93l63 -63h92l65 63v93l-65 64h-92zM278 767h43l31 -30v-43l-31 -29h-43l-30 29v43z" />
    <glyph glyph-name="v" unicode="v" 
d="M434 539v-283l-160 -167l-108 161v289h-94v-304l158 -235h77l222 230v309h-95z" />
    <glyph glyph-name="w" unicode="w" 
d="M489 538v-355l-84 -87h-3l-55 82v360h-94v-386l-54 -57h-5l-81 118v325h-94v-339l134 -199h78l78 80l51 -80h79l143 148v390h-93z" />
    <glyph glyph-name="wacute" unicode="&#x1e83;" 
d="M489 538v-355l-84 -87h-3l-55 82v360h-94v-386l-54 -57h-5l-81 118v325h-94v-339l134 -199h78l78 80l51 -80h79l143 148v390h-93zM212 603l205 99l-55 77l-186 -122z" />
    <glyph glyph-name="wcircumflex" unicode="&#x175;" 
d="M489 538v-355l-84 -87h-3l-55 82v360h-94v-386l-54 -57h-5l-81 118v325h-94v-339l134 -199h78l78 80l51 -80h79l143 148v390h-93zM325 760h-49l-143 -108l48 -52l118 74l120 -74l47 52z" />
    <glyph glyph-name="wdieresis" unicode="&#x1e85;" 
d="M489 538v-355l-84 -87h-3l-55 82v360h-94v-386l-54 -57h-5l-81 118v325h-94v-339l134 -199h78l78 80l51 -80h79l143 148v390h-93zM140 606v110h110v-110h-110zM350 606v110h110v-110h-110z" />
    <glyph glyph-name="wgrave" unicode="&#x1e81;" 
d="M489 538v-355l-84 -87h-3l-55 82v360h-94v-386l-54 -57h-5l-81 118v325h-94v-339l134 -199h78l78 80l51 -80h79l143 148v390h-93zM388 602l36 54l-186 122l-55 -77z" />
    <glyph glyph-name="x" unicode="x" 
d="M434 538v-97l-114 -117h-100l-55 81v133h-94v-147l96 -145v-2l-96 -99v-145h94v121l113 117h101l55 -82v-156h95v170l-98 145l98 100v123h-95z" />
    <glyph glyph-name="y" unicode="y" 
d="M433 538v-452h-211l-56 80v372h-94v-386l103 -152h258v-18l-110 -113h-251v-86h290l166 173v582h-95z" />
    <glyph glyph-name="yacute" unicode="&#xfd;" 
d="M433 538v-452h-211l-56 80v372h-94v-386l103 -152h258v-18l-110 -113h-251v-86h290l166 173v582h-95zM212 594l205 99l-55 77l-186 -122z" />
    <glyph glyph-name="ycircumflex" unicode="&#x177;" 
d="M433 538v-452h-211l-56 80v372h-94v-386l103 -152h258v-18l-110 -113h-251v-86h290l166 173v582h-95zM325 751h-49l-143 -108l48 -52l118 74l120 -74l47 52z" />
    <glyph glyph-name="ydieresis" unicode="&#xff;" 
d="M433 538v-452h-211l-56 80v372h-94v-386l103 -152h258v-18l-110 -113h-251v-86h290l166 173v582h-95zM140 597v110h110v-110h-110zM350 597v110h110v-110h-110z" />
    <glyph glyph-name="ygrave" unicode="&#x1ef3;" 
d="M433 538v-452h-211l-56 80v372h-94v-386l103 -152h258v-18l-110 -113h-251v-86h290l166 173v582h-95zM388 593l36 54l-186 122l-55 -77z" />
    <glyph glyph-name="z" unicode="z" 
d="M76 538v-86h348v-9l-348 -361v-82h448v86h-335l335 347v105h-448z" />
    <glyph glyph-name="zacute" unicode="&#x17a;" 
d="M76 538v-86h348v-9l-348 -361v-82h448v86h-335l335 347v105h-448zM212 594l205 99l-55 77l-186 -122z" />
    <glyph glyph-name="zcaron" unicode="&#x17e;" 
d="M76 538v-86h348v-9l-348 -361v-82h448v86h-335l335 347v105h-448zM325 597l141 107l-47 53l-120 -74l-118 74l-48 -53l143 -107h49z" />
    <glyph glyph-name="zdotaccent" unicode="&#x17c;" 
d="M76 538v-86h348v-9l-348 -361v-82h448v86h-335l335 347v105h-448zM243 598v114h114v-114h-114z" />
    <glyph glyph-name="ordfeminine" unicode="&#xaa;" 
d="M148 553v-86h290v-131h-215l-158 -164v-44l86 -128h212l75 45v-45h96v457l-65 96h-321zM163 142v6l97 100h176v-160h-241z" />
    <glyph glyph-name="ordmasculine" unicode="&#xba;" 
d="M157 538h289l84 -125v-326l-84 -87h-288l-85 125v326zM166 139l36 -53h206l26 27v287l-35 52h-206l-27 -29v-284z" />
    <glyph glyph-name="uni0394" unicode="&#x394;" 
d="M363 700h-126l-198 -700h526zM307 599l149 -513h-308l145 513h14z" />
    <glyph glyph-name="uni03BC" unicode="&#x3bc;" 
d="M519 517v-417l32 -100h-77l-21 40l-38 -40h-185l-72 42v-258h-95l1 733h94v-378l35 -54h206l25 27l1 405h94z" />
    <glyph glyph-name="pi" unicode="&#x3c0;" 
d="M576 541h-552v-87h88v-454h86v454h205v-308l66 -146h87l-66 144v310h86v87z" />
    <glyph glyph-name="zero" unicode="0" 
d="M157 707l-85 -87v-495l85 -125h288l83 87v496l-83 124h-288zM166 592l27 29h205l35 -53v-30l-267 -277v331zM166 138v7l267 278v-309l-26 -28h-205z" />
    <glyph glyph-name="one" unicode="1" 
d="M257 707l-173 -178l49 -75l120 125v-493h-181v-86h456v86h-180v621h-91z" />
    <glyph glyph-name="two" unicode="2" 
d="M158 707l-87 -89l48 -71l75 74h204l59 -88l-384 -398v-135h456v86h-363v23l363 375v103l-80 120h-291z" />
    <glyph glyph-name="three" unicode="3" 
d="M71 707v-86h347l-195 -200v-84h147l65 -94v-125l-32 -32h-332v-86h370l88 91v165l-108 161h-83l191 197v93h-458z" />
    <glyph glyph-name="four" unicode="4" 
d="M361 707l-320 -330l97 -143h266v-234h95v234h60v87h-60v386h-138zM150 366l254 262v-307h-223z" />
    <glyph glyph-name="five" unicode="5" 
d="M71 707v-226l53 -78h245l65 -93v-192l-32 -33h-331v-85h370l88 91v232l-115 167h-244l-5 10v121h343v86h-437z" />
    <glyph glyph-name="six" unicode="6" 
d="M156 707l-84 -87v-493l80 -127h257l119 122v226l-47 69h-253l-62 -63v239l27 28h254v86h-291zM166 139v93l98 98h169v-182l-60 -62h-170z" />
    <glyph glyph-name="seven" unicode="7" 
d="M72 707v-86h361v-27l-282 -288v-306h95v279l282 288v140h-456z" />
    <glyph glyph-name="eight" unicode="8" 
d="M226 707l-154 -160v-89l81 -119h10l-91 -90v-124l85 -125h253l118 124v111l-88 131l88 92v137l-74 112h-228zM166 472v50l97 99h143l27 -40v-99l-63 -62h-169zM166 139v84l106 111h85l76 -113v-73l-63 -62h-168z" />
    <glyph glyph-name="nine" unicode="9" 
d="M125 707l-53 -55v-159l110 -163h251v-153l-79 -91h-242v-86h281l135 151v391l-110 165h-293zM166 508v113h204l63 -94v-110h-206z" />
    <glyph glyph-name="zero.dnom" 
d="M226 360l-47 -47v-246l46 -67h150l45 48v246l-44 66h-150zM240 294l9 10h96l15 -22v-7l-120 -124v143zM240 77v3l120 125v-138l-10 -10h-96z" />
    <glyph glyph-name="one.dnom" 
d="M276 360l-93 -95l33 -48l54 56v-216h-91v-57h241v57h-89v303h-55z" />
    <glyph glyph-name="two.dnom" 
d="M228 360l-50 -50l32 -47l41 41h91l24 -37l-185 -190v-77h241v57h-181v2l181 187v50l-43 64h-151z" />
    <glyph glyph-name="three.dnom" 
d="M179 360v-56h164l-88 -91v-44h77l29 -43v-57l-12 -12h-170v-57h195l47 50v87l-52 78h-34l86 89v56h-242z" />
    <glyph glyph-name="four.dnom" 
d="M329 360l-166 -171l54 -78h130v-111h60v111h30v56h-30v193h-78zM235 183l112 115v-131h-102z" />
    <glyph glyph-name="five.dnom" 
d="M179 360v-121l30 -44h122l30 -42v-84l-13 -13h-169v-56h195l47 50v114l-60 88h-119l-2 5v47h171v56h-232z" />
    <glyph glyph-name="six.dnom" 
d="M225 361l-46 -48v-245l40 -68h138l63 65v111l-26 39h-133l-21 -21v100l9 10h131v57h-155zM240 79v35l44 45h76v-75l-26 -27h-79z" />
    <glyph glyph-name="seven.dnom" 
d="M179 360v-56h181v-4l-141 -144v-156h60v137l141 144v79h-241z" />
    <glyph glyph-name="eight.dnom" 
d="M260 360l-81 -84v-45l40 -59h3l-43 -41v-64l46 -67h133l62 66v57l-42 63l42 44v70l-40 60h-120zM240 242v17l44 45h65l11 -15v-42l-28 -27h-78zM240 78v34l49 52h36l35 -52v-28l-28 -27h-78z" />
    <glyph glyph-name="nine.dnom" 
d="M210 360l-31 -31v-84l58 -86h123v-61l-36 -41h-125v-57h150l71 80v193l-58 87h-152zM240 256v48h91l29 -42v-47h-93z" />
    <glyph glyph-name="zero.numr" 
d="M226 720l-47 -47v-246l46 -67h150l45 48v246l-44 66h-150zM240 654l9 10h96l15 -22v-7l-120 -124v143zM240 437v3l120 125v-138l-10 -10h-96z" />
    <glyph glyph-name="one.numr" 
d="M276 720l-93 -95l33 -48l54 56v-216h-91v-57h241v57h-89v303h-55z" />
    <glyph glyph-name="two.numr" 
d="M228 720l-50 -50l32 -47l41 41h91l24 -37l-185 -190v-77h241v57h-181v2l181 187v50l-43 64h-151z" />
    <glyph glyph-name="three.numr" 
d="M179 720v-56h164l-88 -91v-44h77l29 -43v-57l-12 -12h-170v-57h195l47 50v87l-52 78h-34l86 89v56h-242z" />
    <glyph glyph-name="four.numr" 
d="M329 720l-166 -171l54 -78h130v-111h60v111h30v56h-30v193h-78zM235 543l112 115v-131h-102z" />
    <glyph glyph-name="five.numr" 
d="M179 720v-121l30 -44h122l30 -42v-84l-13 -13h-169v-56h195l47 50v114l-60 88h-119l-2 5v47h171v56h-232z" />
    <glyph glyph-name="six.numr" 
d="M225 722l-46 -48v-245l40 -68h138l63 65v111l-26 39h-133l-21 -21v100l9 10h131v57h-155zM240 440v35l44 45h76v-75l-26 -27h-79z" />
    <glyph glyph-name="seven.numr" 
d="M179 720v-56h181v-4l-141 -144v-156h60v137l141 144v79h-241z" />
    <glyph glyph-name="eight.numr" 
d="M260 720l-81 -84v-45l40 -59h3l-43 -41v-64l46 -67h133l62 66v57l-42 63l42 44v70l-40 60h-120zM240 602v17l44 45h65l11 -15v-42l-28 -27h-78zM240 438v34l49 52h36l35 -52v-28l-28 -27h-78z" />
    <glyph glyph-name="nine.numr" 
d="M210 720l-31 -31v-84l58 -86h123v-61l-36 -41h-125v-57h150l71 80v193l-58 87h-152zM240 616v48h91l29 -42v-47h-93z" />
    <glyph glyph-name="fraction" unicode="&#x2044;" 
d="M46 161l537 257l-23 39l-538 -257z" />
    <glyph glyph-name="uni215F" unicode="&#x215f;" 
d="M46 161l537 257l-23 39l-538 -257zM156 780l-93 -95l33 -48l54 56v-216h-91v-57h241v57h-89v303h-55z" />
    <glyph glyph-name="onehalf" unicode="&#xbd;" 
d="M46 161l537 257l-23 39l-538 -257zM156 780l-93 -95l33 -48l54 56v-216h-91v-57h241v57h-89v303h-55zM308 200l-50 -50l32 -47l41 41h91l24 -37l-185 -190v-77h241v57h-181v2l181 187v50l-43 64h-151z" />
    <glyph glyph-name="uni2153" unicode="&#x2153;" 
d="M46 161l537 257l-23 39l-538 -257zM156 780l-93 -95l33 -48l54 56v-216h-91v-57h241v57h-89v303h-55zM259 200v-56h164l-88 -91v-44h77l29 -43v-57l-12 -12h-170v-57h195l47 50v87l-52 78h-34l86 89v56h-242z" />
    <glyph glyph-name="uni2154" unicode="&#x2154;" 
d="M46 161l537 257l-23 39l-538 -257zM59 779v-56h164l-88 -91v-44h77l29 -43v-57l-12 -12h-170v-57h195l47 50v87l-52 78h-34l86 89v56h-242zM409 200l-166 -171l54 -78h130v-111h60v111h30v56h-30v193h-78zM315 23l112 115v-131h-102z" />
    <glyph glyph-name="onequarter" unicode="&#xbc;" 
d="M46 161l537 257l-23 39l-538 -257zM156 780l-93 -95l33 -48l54 56v-216h-91v-57h241v57h-89v303h-55zM409 200l-166 -171l54 -78h130v-111h60v111h30v56h-30v193h-78zM315 23l112 115v-131h-102z" />
    <glyph glyph-name="threequarters" unicode="&#xbe;" 
d="M46 161l537 257l-23 39l-538 -257zM59 779v-56h164l-88 -91v-44h77l29 -43v-57l-12 -12h-170v-57h195l47 50v87l-52 78h-34l86 89v56h-242zM409 200l-166 -171l54 -78h130v-111h60v111h30v56h-30v193h-78zM315 23l112 115v-131h-102z" />
    <glyph glyph-name="oneeighth" unicode="&#x215b;" 
d="M46 161l537 257l-23 39l-538 -257zM156 780l-93 -95l33 -48l54 56v-216h-91v-57h241v57h-89v303h-55zM340 196l-81 -84v-45l40 -59h3l-43 -41v-64l46 -67h133l62 66v57l-42 63l42 44v70l-40 60h-120zM320 78v17l44 45h65l11 -15v-42l-28 -27h-78zM320 -86v34l49 52h36
l35 -52v-28l-28 -27h-78z" />
    <glyph glyph-name="threeeighths" unicode="&#x215c;" 
d="M46 161l537 257l-23 39l-538 -257zM59 779v-56h164l-88 -91v-44h77l29 -43v-57l-12 -12h-170v-57h195l47 50v87l-52 78h-34l86 89v56h-242zM409 200l-166 -171l54 -78h130v-111h60v111h30v56h-30v193h-78zM315 23l112 115v-131h-102z" />
    <glyph glyph-name="fiveeighths" unicode="&#x215d;" 
d="M46 161l537 257l-23 39l-538 -257zM59 780v-121l30 -44h122l30 -42v-84l-13 -13h-169v-56h195l47 50v114l-60 88h-119l-2 5v47h171v56h-232zM340 196l-81 -84v-45l40 -59h3l-43 -41v-64l46 -67h133l62 66v57l-42 63l42 44v70l-40 60h-120zM320 78v17l44 45h65l11 -15v-42
l-28 -27h-78zM320 -86v34l49 52h36l35 -52v-28l-28 -27h-78z" />
    <glyph glyph-name="seveneighths" unicode="&#x215e;" 
d="M46 161l537 257l-23 39l-538 -257zM59 780v-56h181v-4l-141 -144v-156h60v137l141 144v79h-241zM340 196l-81 -84v-45l40 -59h3l-43 -41v-64l46 -67h133l62 66v57l-42 63l42 44v70l-40 60h-120zM320 78v17l44 45h65l11 -15v-42l-28 -27h-78zM320 -86v34l49 52h36l35 -52
v-28l-28 -27h-78z" />
    <glyph glyph-name="uni2080" unicode="&#x2080;" 
d="M226 360l-47 -47v-246l46 -67h150l45 48v246l-44 66h-150zM240 294l9 10h96l15 -22v-7l-120 -124v143zM240 77v3l120 125v-138l-10 -10h-96z" />
    <glyph glyph-name="uni2081" unicode="&#x2081;" 
d="M276 360l-93 -95l33 -48l54 56v-216h-91v-57h241v57h-89v303h-55z" />
    <glyph glyph-name="uni2082" unicode="&#x2082;" 
d="M228 360l-50 -50l32 -47l41 41h91l24 -37l-185 -190v-77h241v57h-181v2l181 187v50l-43 64h-151z" />
    <glyph glyph-name="uni2083" unicode="&#x2083;" 
d="M179 360v-56h164l-88 -91v-44h77l29 -43v-57l-12 -12h-170v-57h195l47 50v87l-52 78h-34l86 89v56h-242z" />
    <glyph glyph-name="uni2084" unicode="&#x2084;" 
d="M329 360l-166 -171l54 -78h130v-111h60v111h30v56h-30v193h-78zM235 183l112 115v-131h-102z" />
    <glyph glyph-name="uni2085" unicode="&#x2085;" 
d="M179 360v-121l30 -44h122l30 -42v-84l-13 -13h-169v-56h195l47 50v114l-60 88h-119l-2 5v47h171v56h-232z" />
    <glyph glyph-name="uni2086" unicode="&#x2086;" 
d="M225 361l-46 -48v-245l40 -68h138l63 65v111l-26 39h-133l-21 -21v100l9 10h131v57h-155zM240 79v35l44 45h76v-75l-26 -27h-79z" />
    <glyph glyph-name="uni2087" unicode="&#x2087;" 
d="M179 360v-56h181v-4l-141 -144v-156h60v137l141 144v79h-241z" />
    <glyph glyph-name="uni2088" unicode="&#x2088;" 
d="M260 360l-81 -84v-45l40 -59h3l-43 -41v-64l46 -67h133l62 66v57l-42 63l42 44v70l-40 60h-120zM240 242v17l44 45h65l11 -15v-42l-28 -27h-78zM240 78v34l49 52h36l35 -52v-28l-28 -27h-78z" />
    <glyph glyph-name="uni2089" unicode="&#x2089;" 
d="M210 360l-31 -31v-84l58 -86h123v-61l-36 -41h-125v-57h150l71 80v193l-58 87h-152zM240 256v48h91l29 -42v-47h-93z" />
    <glyph glyph-name="uni2070" unicode="&#x2070;" 
d="M226 720l-47 -47v-246l46 -67h150l45 48v246l-44 66h-150zM240 654l9 10h96l15 -22v-7l-120 -124v143zM240 437v3l120 125v-138l-10 -10h-96z" />
    <glyph glyph-name="uni00B9" unicode="&#xb9;" 
d="M276 720l-93 -95l33 -48l54 56v-216h-91v-57h241v57h-89v303h-55z" />
    <glyph glyph-name="uni00B2" unicode="&#xb2;" 
d="M228 720l-50 -50l32 -47l41 41h91l24 -37l-185 -190v-77h241v57h-181v2l181 187v50l-43 64h-151z" />
    <glyph glyph-name="uni00B3" unicode="&#xb3;" 
d="M179 720v-56h164l-88 -91v-44h77l29 -43v-57l-12 -12h-170v-57h195l47 50v87l-52 78h-34l86 89v56h-242z" />
    <glyph glyph-name="uni2074" unicode="&#x2074;" 
d="M329 720l-166 -171l54 -78h130v-111h60v111h30v56h-30v193h-78zM235 543l112 115v-131h-102z" />
    <glyph glyph-name="uni2075" unicode="&#x2075;" 
d="M179 720v-121l30 -44h122l30 -42v-84l-13 -13h-169v-56h195l47 50v114l-60 88h-119l-2 5v47h171v56h-232z" />
    <glyph glyph-name="uni2076" unicode="&#x2076;" 
d="M225 722l-46 -48v-245l40 -68h138l63 65v111l-26 39h-133l-21 -21v100l9 10h131v57h-155zM240 440v35l44 45h76v-75l-26 -27h-79z" />
    <glyph glyph-name="uni2077" unicode="&#x2077;" 
d="M179 720v-56h181v-4l-141 -144v-156h60v137l141 144v79h-241z" />
    <glyph glyph-name="uni2078" unicode="&#x2078;" 
d="M260 720l-81 -84v-45l40 -59h3l-43 -41v-64l46 -67h133l62 66v57l-42 63l42 44v70l-40 60h-120zM240 602v17l44 45h65l11 -15v-42l-28 -27h-78zM240 438v34l49 52h36l35 -52v-28l-28 -27h-78z" />
    <glyph glyph-name="uni2079" unicode="&#x2079;" 
d="M210 720l-31 -31v-84l58 -86h123v-61l-36 -41h-125v-57h150l71 80v193l-58 87h-152zM240 616v48h91l29 -42v-47h-93z" />
    <glyph glyph-name="zerowidthnobreakspace" unicode="&#xfeff;" horiz-adv-x="0" 
 />
    <glyph glyph-name="CR" unicode="&#xd;" 
 />
    <glyph glyph-name="space" unicode=" " 
 />
    <glyph glyph-name="uni00A0" unicode="&#xa0;" 
 />
    <glyph glyph-name="hyphen_greater.liga" 
d="M283 257h-638v86h638v-86zM60 609l295 -285v-49l-297 -286l-57 62l256 249l-257 247z" />
    <glyph glyph-name="period_period.liga" 
d="M-269 0v159h158v-159h-158zM111 0v159h158v-159h-158z" />
    <glyph glyph-name="period_period_period.liga" 
d="M-759 0v159h158v-159h-158zM1 0v159h158v-159h-158zM-380 0v159h158v-159h-158z" />
    <glyph glyph-name="colon_colon.liga" 
d="M-266 534h154v-154h-154v154zM-266 179h154v-154h-154v154zM111 534h154v-154h-154v154zM111 179h154v-154h-154v154z" />
    <glyph glyph-name="colon_colon_colon.liga" 
d="M0 534h154v-154h-154v154zM0 179h154v-154h-154v154zM-753 534h154v-154h-154v154zM-753 179h154v-154h-154v154zM-378 534h154v-154h-154v154zM-378 179h154v-154h-154v154z" />
    <glyph glyph-name="exclam_equal.liga" 
d="M-343 431h687v-88h-687v88zM-343 239h687v-88h-687v88zM140 779l79 -31l-360 -928l-78 31z" />
    <glyph glyph-name="exclam_equal_equal.liga" 
d="M-898 350h1196v-86h-1196v86zM-898 169h1196v-86h-1196v86zM-898 531h1196v-86h-1196v86zM-180 785l80 -27l-321 -943l-79 27z" />
    <glyph glyph-name="question_period.liga" 
d="M-291 704l-126 -131l47 -73l115 118h204l65 -97l-210 -217v-113h96v89l223 233l-127 191h-287zM-206 -24h118v105h-118v-105zM142 0v159h158v-159h-158z" />
    <glyph glyph-name="asterisk_asterisk.liga" 
d="M-298 540v-135l-128 42l-30 -89l128 -41l-79 -110l76 -55l79 110l79 -110l76 55l-78 110l127 41l-28 89l-129 -42v135h-93zM206 540v-135l-128 42l-30 -89l128 -41l-79 -110l76 -55l79 110l79 -110l76 55l-78 110l127 41l-28 89l-129 -42v135h-93z" />
    <glyph glyph-name="asterisk_slash.liga" 
d="M-226 540v-135l-128 42l-30 -89l128 -41l-79 -110l76 -55l79 110l79 -110l76 55l-78 110l127 41l-28 89l-129 -42v135h-93zM302 785l80 -27l-321 -943l-79 27z" />
    <glyph glyph-name="slash_asterisk.liga" 
d="M-60 785l80 -27l-321 -943l-79 27zM144 540v-135l-128 42l-30 -89l128 -41l-79 -110l76 -55l79 110l79 -110l76 55l-78 110l127 41l-28 89l-129 -42v135h-93z" />
    <glyph glyph-name="slash_equal.liga" 
d="M-372 437h372v-86h-372v86zM-425 245h425v-86h-425v86zM-277 785l81 -27l-321 -943l-80 27zM0 437h399v-86h-399v86zM0 245h399v-86h-399v86z" />
    <glyph glyph-name="slash_slash.liga" 
d="M-57 814l80 -27l-321 -943l-79 27zM297 785l80 -27l-321 -943l-79 27z" />
    <glyph glyph-name="backslash_backslash.liga" 
d="M57 815l320 -944l-80 -27l-321 944zM-297 785l321 -943l-80 -27l-321 943z" />
    <glyph glyph-name="period" unicode="." 
d="M221 0v159h158v-159h-158z" />
    <glyph glyph-name="comma" unicode="," 
d="M223 146v-146h60v-95l-49 -51l48 -75l95 96v271h-154z" />
    <glyph glyph-name="colon" unicode=":" 
d="M223 534h154v-154h-154v154zM223 179h154v-154h-154v154z" />
    <glyph glyph-name="semicolon" unicode=";" 
d="M223 380v154h154v-154h-154zM223 130v-144h52v-65l-45 -46l54 -80l93 91v244h-154z" />
    <glyph glyph-name="ellipsis" unicode="&#x2026;" 
d="M20 0v127h127v-127h-127zM237 0v127h126v-127h-126zM453 0v127h127v-127h-127z" />
    <glyph glyph-name="exclam" unicode="!" 
d="M359 77h-118v-105h118v105zM253 197h96v513h-96v-513z" />
    <glyph glyph-name="exclamdown" unicode="&#xa1;" 
d="M241 563h118v105h-118v-105zM347 443h-96v-513h96v513z" />
    <glyph glyph-name="question" unicode="?" 
d="M156 704l-126 -131l47 -73l115 118h204l65 -97l-210 -217v-113h96v89l223 233l-127 191h-287zM241 -24h118v105h-118v-105z" />
    <glyph glyph-name="questiondown" unicode="&#xbf;" 
d="M444 -25l126 131l-47 73l-115 -118h-204l-65 97l210 217v113h-96v-89l-223 -233l127 -191h287zM359 703h-118v-105h118v105z" />
    <glyph glyph-name="periodcentered" unicode="&#xb7;" 
d="M221 221v158h158v-158h-158z" />
    <glyph glyph-name="bullet" unicode="&#x2022;" 
d="M265 382l-47 -48v-69l47 -47h69l48 47v69l-48 48h-69z" />
    <glyph glyph-name="asterisk" unicode="*" 
d="M254 540v-135l-128 42l-30 -89l128 -41l-79 -110l76 -55l79 110l79 -110l76 55l-78 110l127 41l-28 89l-129 -42v135h-93z" />
    <glyph glyph-name="numbersign" unicode="#" 
d="M213 254l38 205h134l-37 -205h-135zM569 545h-81l32 168h-88l-30 -168h-136l31 168h-86l-31 -168h-95v-86h80l-38 -205h-96v-86h80l-31 -168h88l30 168h133l-30 -168h86l33 168h95v86h-80l38 205h96v86z" />
    <glyph glyph-name="uni203E" unicode="&#x203e;" 
d="M600 800h-600v85h600v-85z" />
    <glyph glyph-name="slash" unicode="/" 
d="M420 785l80 -27l-321 -943l-79 27z" />
    <glyph glyph-name="backslash" unicode="\" 
d="M180 785l320 -943l-79 -27l-321 943z" />
    <glyph glyph-name="hyphen" unicode="-" 
d="M478 257h-356v86h356v-86z" />
    <glyph glyph-name="endash" unicode="&#x2013;" 
d="M580 257h-560v86h560v-86z" />
    <glyph glyph-name="emdash" unicode="&#x2014;" 
d="M600 257h-600v86h600v-86z" />
    <glyph glyph-name="underscore" unicode="_" 
d="M560 -135h-520v85h520v-85z" />
    <glyph glyph-name="underscoredbl" unicode="&#x2017;" 
d="M560 -135h-520v85h520v-85zM560 -267h-520v85h520v-85z" />
    <glyph glyph-name="parenleft" unicode="(" 
d="M401 814l-265 -274v-480l265 -274l63 70l-228 235v418l228 235z" />
    <glyph glyph-name="parenright" unicode=")" 
d="M202 814l-67 -70l229 -235v-418l-229 -235l67 -70l263 274v480z" />
    <glyph glyph-name="braceleft" unicode="{" 
d="M327 790l-54 -57v-247l-180 -186l180 -186v-247l54 -57h180v88h-139v243l-156 159l156 159v243h139v88h-180z" />
    <glyph glyph-name="braceright" unicode="}" 
d="M93 790v-88h142v-243l153 -159l-153 -159v-243h-142v-88h180l54 57v247l180 186l-180 186v247l-54 57h-180z" />
    <glyph glyph-name="bracketleft" unicode="[" 
d="M153 790v-980h294v88h-200v804h200v88h-294z" />
    <glyph glyph-name="bracketright" unicode="]" 
d="M152 790v-90h201v-800h-201v-90h296v980h-296z" />
    <glyph glyph-name="quotesinglbase" unicode="&#x201a;" 
d="M223 146v-146h60v-95l-49 -51l48 -75l95 96v271h-154z" />
    <glyph glyph-name="quotedblbase" unicode="&#x201e;" 
d="M323 146v-146h60v-95l-49 -51l48 -75l95 96v271h-154zM123 146v-146h60v-95l-49 -51l48 -75l95 96v271h-154z" />
    <glyph glyph-name="quotedblleft" unicode="&#x201c;" 
d="M214 500v146h-60v95l49 52l-48 74l-95 -96v-271h154zM418 500v146h-60v95l49 52l-48 74l-95 -96v-271h154z" />
    <glyph glyph-name="quotedblright" unicode="&#x201d;" 
d="M386 767v-146h60v-95l-49 -51l48 -75l95 96v271h-154zM182 767v-146h60v-95l-49 -51l48 -75l95 96v271h-154z" />
    <glyph glyph-name="quoteleft" unicode="&#x2018;" 
d="M377 438v146h-60v95l49 52l-48 74l-95 -96v-271h154z" />
    <glyph glyph-name="quoteright" unicode="&#x2019;" 
d="M223 733v-146h60v-95l-49 -51l48 -75l95 96v271h-154z" />
    <glyph glyph-name="guillemotleft" unicode="&#xab;" 
d="M509 89l-137 210l137 212l-47 29l-175 -214v-54l175 -212zM314 89l-137 210l137 212l-47 29l-175 -214v-54l175 -212z" />
    <glyph glyph-name="guillemotright" unicode="&#xbb;" 
d="M92 89l47 -29l175 212v54l-175 214l-47 -29l137 -212zM287 89l47 -29l175 212v54l-175 214l-47 -29l137 -212z" />
    <glyph glyph-name="guilsinglleft" unicode="&#x2039;" 
d="M411 89l-137 210l137 212l-47 29l-175 -214v-54l175 -212z" />
    <glyph glyph-name="guilsinglright" unicode="&#x203a;" 
d="M327 300l-138 -211l48 -29l174 212v54l-174 214l-48 -29z" />
    <glyph glyph-name="quotedbl" unicode="&#x22;" 
d="M156 420h94v280h-94v-280zM350 420h94v280h-94v-280z" />
    <glyph glyph-name="quotesingle" unicode="'" 
d="M253 420h95v280h-95v-280z" />
    <glyph glyph-name="ampersand_ampersand.liga" 
d="M-318 714l-85 -89v-66l96 -144l-177 -183v-133l67 -99h275l76 78l53 -78h275l67 71l48 -71h104l-92 133l107 109v110h-147v-85h50l-58 -61l-133 200l162 169v54l-59 85h-225l-86 -89v-66l97 -144l-177 -183l-116 174l163 169v54l-59 85h-226zM-320 587l39 42h146l14 -23
l-125 -127zM84 587l39 42h145l14 -23l-124 -127zM-390 114v91l131 137l136 -200l-54 -56h-195zM32 86l-55 82l168 174l135 -200l-53 -56h-195z" />
    <glyph glyph-name="dollar_greater.liga" 
d="M-254 677v153h-96v-153h-97l-84 -88v-169l84 -125h251l27 -37v-155l-20 -17h-342l-36 -86h217v-152h96v152h104l75 77v193l-74 111h-252l-36 53v130l25 27h606l288 -277l-257 -249l58 -62l297 286v49l-350 339h-484z" />
    <glyph glyph-name="plus_plus.liga" 
d="M-243 499v-156h-157v-86h157v-156h86v156h157v86h-157v156h-86zM157 499v-156h-157v-86h157v-156h86v156h157v86h-157v156h-86z" />
    <glyph glyph-name="plus_plus_plus.liga" 
d="M-343 499v-156h-157v-86h157v-156h86v156h157v86h-157v156h-86zM-742 499v-156h-157v-86h157v-156h86v156h157v86h-157v156h-86zM56 499v-156h-157v-86h157v-156h86v156h157v86h-157v156h-86z" />
    <glyph glyph-name="equal_equal.liga" 
d="M-398 437h398v-86h-398v86zM-398 245h398v-86h-398v86zM0 437h398v-86h-398v86zM0 245h398v-86h-398v86z" />
    <glyph glyph-name="equal_equal_equal.liga" 
d="M-898 350h1196v-86h-1196v86zM-898 169h1196v-86h-1196v86zM-898 531h1196v-86h-1196v86z" />
    <glyph glyph-name="equal_greater.liga" 
d="M-399 437h650l49 -86h-699v86zM-399 245h699l-49 -86h-650v86zM104 608l295 -285v-49l-297 -286l-58 62l256 249l-256 247z" />
    <glyph glyph-name="equal_greater_equal.liga" 
d="M-199 437h448v-86h-385zM-136 245h385v-86h-448zM-348 608l295 -285v-49l-297 -286l-57 62l256 249l-256 247zM-850 437h650l49 -86h-699v86zM-850 245h699l-49 -86h-650v86z" />
    <glyph glyph-name="equal_less_equal.liga" 
d="M-402 437l-62 -86h-386v86h448zM-464 245l62 -86h-448v86h386zM-253 608l60 -62l-256 -247l256 -249l-58 -62l-297 286v49zM250 437v-86h-699l49 86h650zM250 245v-86h-650l-49 86h699z" />
    <glyph glyph-name="equal_less_less.liga" 
d="M-866 438h492v-86h-492v86zM-866 246h492v-86h-492v86zM-219 611l60 -62l-256 -247l256 -249l-58 -62l-297 286v49zM206 611l60 -62l-257 -247l256 -249l-57 -62l-297 286v49z" />
    <glyph glyph-name="greater_equal.liga" 
d="M-259 606l295 -285v-49l-297 -286l-57 62l256 249l-256 247zM-79 437h398v-86h-398v86zM-79 245h398v-86h-398v86z" />
    <glyph glyph-name="greater_greater_equal.liga" 
d="M266 438v-86h-492v86h492zM266 246v-86h-492v86h492zM-381 611l295 -285v-49l-297 -286l-58 62l256 249l-256 247zM-806 611l295 -285v-49l-297 -286l-57 62l256 249l-257 247z" />
    <glyph glyph-name="less_hyphen.liga" 
d="M-283 257v86h638v-86h-638zM-60 609l59 -62l-256 -247l256 -249l-57 -62l-297 286v49z" />
    <glyph glyph-name="less_asterisk_greater.liga" 
d="M-650 650l60 -62l-256 -247l256 -249l-58 -62l-297 286v49zM-346 540v-135l-128 42l-30 -89l128 -41l-79 -110l76 -55l79 110l79 -110l76 55l-78 110l127 41l-28 89l-129 -42v135h-93zM22 650l295 -285v-49l-297 -286l-57 62l256 249l-256 247z" />
    <glyph glyph-name="less_dollar.liga" 
d="M374 677v153h-97v-153h-96l-85 -88v-169l84 -125h252l26 -37v-155l-19 -17h-632l-261 254l257 246l-61 62l-294 -284v-49l323 -315h506v-152h97v152h104l75 77v193l-75 111h-252l-35 53v130l25 27h301l36 86h-179z" />
    <glyph glyph-name="less_dollar_greater.liga" 
d="M-254 677v153h-96v-153h-97l-84 -88v-169l84 -125h251l27 -37v-155l-20 -17h-632l-261 254l257 246l-60 62l-295 -284v-49l324 -315h506v-152h96v152h104l75 77v193l-74 111h-252l-36 53v130l25 27h606l288 -277l-257 -249l58 -62l297 286v49l-350 339h-484z" />
    <glyph glyph-name="less_equal.liga" 
d="M399 437v-86h-699l49 86h650zM399 245v-86h-650l-49 86h699zM-104 608l60 -62l-256 -247l256 -249l-58 -62l-297 286v49z" />
    <glyph glyph-name="at" unicode="@" 
d="M193 660l-190 -186v-374l154 -204h299v79h-261l-104 135v343l134 129h166l118 -105v-293h-53v191l-81 73h-115l-106 -107v-123l81 -110h289l73 47v346l-168 159h-236zM237 236v81l49 52h77v-185h-91z" />
    <glyph glyph-name="ampersand" unicode="&#x26;" 
d="M177 714l-85 -90v-66l97 -143l-178 -184v-132l68 -99h275l67 71l48 -71h104l-91 132l107 109v111h-148v-85h49l-57 -62l-133 200l163 169v55l-59 85h-227zM176 587l39 41h145l14 -22l-124 -128zM106 114v91l131 137l135 -200l-54 -56h-194z" />
    <glyph glyph-name="paragraph" unicode="&#xb6;" 
d="M143 767l-92 -94v-322l90 -134h109l55 32v-329h89v735h82v-735h73v847h-406z" />
    <glyph glyph-name="section" unicode="&#xa7;" 
d="M179 775l-80 -77v-110l45 -67l-46 -45v-125l79 -120h206l27 -36v-90l-18 -19h-208l-29 44l-59 -61l45 -69h290l72 79v132l-38 56l39 44v137l-72 106h-205l-35 50v64l27 22h168l42 -61l59 61l-57 85h-252zM226 317l-35 50v81l25 21h168l27 -37v-96l-18 -19h-167z" />
    <glyph glyph-name="copyright" unicode="&#xa9;" 
d="M200 515h208l72 -106l-51 -54l-59 88h-138l-32 -32v-148l40 -58h137l60 62l41 -62l-69 -72h-208l-81 121v178zM181 603l-163 -163v-239l163 -161h234l167 161v239l-167 163h-234z" />
    <glyph glyph-name="registered" unicode="&#xae;" 
d="M215 700l-115 -116v-170l115 -114h166l119 114v170l-119 116h-166zM234 629h120l51 -65v-33l-44 -54l41 -52v-48h-57v42l-43 55h-48v-97h-57v215zM254 577v-70h83l11 37v12l-22 21h-72z" />
    <glyph glyph-name="trademark" unicode="&#x2122;" 
d="M8 647v-54h80l29 -43v-250h60v258l-58 35h141v-293h61v231l72 -107v-2h64v69l75 78v-269h60v347h-60l-133 -137l-56 83v54h-335z" />
    <glyph glyph-name="degree" unicode="&#xb0;" 
d="M253 700l-63 -64v-93l63 -63h92l65 63v93l-65 64h-92zM278 641h43l31 -29v-44l-31 -29h-43l-30 29v44z" />
    <glyph glyph-name="bar" unicode="|" 
d="M253 -160v920h94v-920h-94z" />
    <glyph glyph-name="brokenbar" unicode="&#xa6;" 
d="M347 760h-94v-350h94v350zM347 190h-94v-350h94v350z" />
    <glyph glyph-name="dagger" unicode="&#x2020;" 
d="M261 0v700h78v-700h-78zM471 422h-342v78h342v-78z" />
    <glyph glyph-name="daggerdbl" unicode="&#x2021;" 
d="M261 0v700h78v-700h-78zM471 422h-342v78h342v-78zM471 179h-342v78h342v-78z" />
    <glyph glyph-name="uni24C0" unicode="&#x24c0;" 
d="M300 0q-62 0 -116.5 23.5t-95.5 64.5t-64.5 95.5t-23.5 116.5t23.5 116.5t64.5 95.5t95.5 64.5t116.5 23.5t116.5 -23.5t95.5 -64.5t64.5 -95.5t23.5 -116.5t-23.5 -116.5t-64.5 -95.5t-95.5 -64.5t-116.5 -23.5zM300 75q63 0 114 30t81 81t30 114t-30 114t-81 81
t-114 30t-114 -30t-81 -81t-30 -114t30 -114t81 -81t114 -30zM272 301l158 -126h-90l-114 89zM430 425l-158 -124l-46 36l113 88h91zM227 425v-249l-57 44v161z" />
    <glyph glyph-name="uni20BF" unicode="&#x20bf;" 
d="M79 700v-700h371l85 52v217l-96 141h-29l115 121v97l-50 72h-396zM173 615h258v-59l-140 -146h-118v205zM173 324h220l48 -67v-171h-268v238zM160 630h93v196h-93v-196zM330 630h93v196h-93v-196zM160 -130h93v190h-93v-190zM330 -130h93v190h-93v-190z" />
    <glyph glyph-name="cent" unicode="&#xa2;" 
d="M167 538l-84 -86v-328l84 -124h97v-152h94v152h96l74 77l-48 69l-61 -64h-205l-36 54v287l27 29h206l58 -87l61 62l-76 111h-96v159h-94v-159h-97z" />
    <glyph glyph-name="currency" unicode="&#xa4;" 
d="M460 559l-72 -72l-18 19h-140l-18 -19l-72 72l-60 -60l72 -72l-19 -18v-138l19 -20l-72 -70l60 -60l72 70l18 -19h140l18 19l72 -70l60 60l-72 70l19 20v138l-19 18l72 72zM334 424l49 -49v-70l-49 -49h-70l-47 49v70l47 49h70z" />
    <glyph glyph-name="dollar" unicode="$" 
d="M415 85h-251l-33 46l-60 -62l49 -69h134v-140h96v140h105l74 77v203l-74 111h-252l-36 53v140l26 27h207l43 -64l61 60l-58 90h-96v100h-96v-100h-97l-84 -88v-179l84 -125h251l27 -37v-165z" />
    <glyph glyph-name="Euro" unicode="&#x20ac;" 
d="M190 587l26 28h207l56 -82l61 63l-72 105h-287l-85 -87v-157h-41v-79h41v-65h-41v-79h41v-109l84 -125h288l77 78l-51 74l-62 -66h-207l-35 53v95h230v79h-230v65h230v79h-230v130z" />
    <glyph glyph-name="uni20BA" unicode="&#x20ba;" 
d="M151 748h94v-179l162 61v-84l-162 -62v-49l161 62v-84l-161 -62v-212l35 -53h95l105 158l48 -71l-114 -173h-180l-83 123v198l-79 -29v83l79 29v48l-79 -30v84l79 30v212z" />
    <glyph glyph-name="sterling" unicode="&#xa3;" 
d="M229 713l-86 -128v-183h-69v-86h69v-178l-35 -52h-54v-86h491v86h-334l28 42v188h191v86h-191v173l36 53h177v-73h94v158h-317z" />
    <glyph glyph-name="kda" 
d="M300 0q-62 0 -116.5 23.5t-95.5 64.5t-64.5 95.5t-23.5 116.5t23.5 116.5t64.5 95.5t95.5 64.5t116.5 23.5t116.5 -23.5t95.5 -64.5t64.5 -95.5t23.5 -116.5t-23.5 -116.5t-64.5 -95.5t-95.5 -64.5t-116.5 -23.5zM261 301l-63 -51l157 -123h125zM480 473h-126l-156 -122
l63 -50zM199 473l-79 -61v-223l79 -60v344z" />
    <glyph glyph-name="yen" unicode="&#xa5;" 
d="M434 700h94v-174l-181 -188v-338h-94v330l-181 269v101h94v-88l133 -198h2l133 139v147zM489 338v-79h-385v79h385zM489 207v-79h-385v79h385z" />
    <glyph glyph-name="plus" unicode="+" 
d="M257 499v-156h-157v-86h157v-156h86v156h157v86h-157v156h-86z" />
    <glyph glyph-name="minus" unicode="&#x2212;" 
d="M488 343h-376v-86h376v86z" />
    <glyph glyph-name="multiply" unicode="&#xd7;" 
d="M411 471l-111 -110l-111 111l-60 -61l110 -111l-110 -110l61 -61l110 110l111 -111l60 61l-110 111l110 110z" />
    <glyph glyph-name="divide" unicode="&#xf7;" 
d="M488 344h-376v-86h376v86zM278 527l-31 -31v-47l31 -30h45l32 30v47l-32 31h-45zM277 181l-30 -30v-47l30 -31h46l32 31v47l-32 30h-46z" />
    <glyph glyph-name="equal" unicode="=" 
d="M101 437h398v-86h-398v86zM101 245h398v-86h-398v86z" />
    <glyph glyph-name="notequal" unicode="&#x2260;" 
d="M468 550l-259 -536l-77 36l259 537zM101 437h398v-86h-398v86zM101 245h398v-86h-398v86z" />
    <glyph glyph-name="greater" unicode="&#x3e;" 
d="M182 650l295 -285v-49l-297 -286l-57 62l256 249l-256 247z" />
    <glyph glyph-name="less" unicode="&#x3c;" 
d="M418 650l59 -62l-256 -247l256 -249l-57 -62l-297 286v49z" />
    <glyph glyph-name="greaterequal" unicode="&#x2265;" 
d="M385 423l-282 -128l35 -78l360 161v88l-357 159l-35 -80zM498 161l-395 -4v-90h395v94z" />
    <glyph glyph-name="lessequal" unicode="&#x2264;" 
d="M215 423l279 122l-35 80l-357 -159v-88l360 -161l35 78zM102 161v-94h395v90z" />
    <glyph glyph-name="plusminus" unicode="&#xb1;" 
d="M488 152h-376v-85h376v85zM257 596v-156h-157v-86h157v-156h86v156h157v86h-157v156h-86z" />
    <glyph glyph-name="approxequal" unicode="&#x2248;" 
d="M471 492l44 -74l-117 -71l-182 52l-87 -54l-44 74l117 71l184 -50zM471 255l44 -74l-117 -71l-182 52l-87 -54l-44 74l117 71l184 -50z" />
    <glyph glyph-name="asciitilde" unicode="~" 
d="M521 375l-132 -64l-180 66l-164 -79l34 -73l135 66l177 -68l164 80z" />
    <glyph glyph-name="logicalnot" unicode="&#xac;" 
d="M504 373h-408v-87h315v-183h93v270z" />
    <glyph glyph-name="asciicircum" unicode="^" 
d="M298 727l168 -282l80 37l-204 358h-87l-199 -354l80 -38z" />
    <glyph glyph-name="infinity" unicode="&#x221e;" 
d="M573 444l-123 118h-69l-92 -62l-69 62h-101l-92 -62v-198l95 -91h87l100 67l71 -67h108l85 57v176zM392 489h39l76 -73v-112l-31 -21h-76l-48 49v131zM134 489h65l86 -81v-66l-87 -59h-57l-48 49v131z" />
    <glyph glyph-name="integral" unicode="&#x222b;" 
d="M552 904l-22 -82h-85l-55 -56l-90 -919l-111 -116h-134l23 82h78l55 56l90 919l111 116h140z" />
    <glyph glyph-name="product" unicode="&#x220f;" 
d="M545 733h-490v-75h94v-715l77 10v705h149v-715l79 10v705h91v75z" />
    <glyph glyph-name="summation" unicode="&#x2211;" 
d="M523 739h-446v-84l258 -336l-258 -323v-82h446v86h-349l233 285v73l-234 295h350v86z" />
    <glyph glyph-name="radical" unicode="&#x221a;" 
d="M705 853v-86h-124l-206 -767h-125l-151 362l77 43l124 -299h14l201 747h190z" />
    <glyph glyph-name="partialdiff" unicode="&#x2202;" 
d="M160 735l-27 -79l107 -36l77 -46l87 -90l22 -84l-122 69l-168 -64l-71 -190l71 -189l169 -73l168 73l62 186v106l-56 206l-105 110l-72 52zM202 89l-48 126l50 132l94 35l149 -84l3 -71l-46 -138l-99 -45z" />
    <glyph glyph-name="percent" unicode="%" 
d="M90 700l-49 -51v-73l49 -50h73l52 50v73l-52 51h-73zM523 711l-523 -670l72 -58l528 672zM435 174l-50 -50v-74l50 -50h73l51 51v72l-51 51h-73z" />
    <glyph glyph-name="perthousand" unicode="&#x2030;" 
d="M90 700l-49 -51v-73l49 -50h73l52 50v73l-52 51h-73zM565 539l-565 -225l32 -84l568 229zM436 173l-50 -50v-73l50 -50h72l51 51v72l-51 50h-72zM185 173l-50 -50v-73l50 -50h72l51 51v72l-51 50h-72z" />
    <glyph glyph-name="universal" unicode="&#x2200;" 
d="M79 172l167 -172h275v700h-93v-324h-256v324h-93v-528zM172 197v93h256v-204h-148z" />
    <glyph glyph-name="arrowup" unicode="&#x2191;" 
d="M610 382l-62 -60l-247 257l-249 -256l-62 57l286 297h49zM257 613h86v-516h-86v516z" />
    <glyph glyph-name="uni2197" unicode="&#x2197;" 
d="M524 111l-87 2l7 356l-357 -5l-4 85l413 7l34 -35zM437 524l61 -60l-365 -366l-61 61z" />
    <glyph glyph-name="arrowright" unicode="&#x2192;" 
d="M305 650l295 -285v-49l-297 -286l-57 62l256 249l-257 247zM536 297h-516v86h516v-86z" />
    <glyph glyph-name="uni2198" unicode="&#x2198;" 
d="M87 113l2 87l356 -7l-5 357l85 4l7 -413l-35 -34zM500 200l-60 -61l-366 365l61 61z" />
    <glyph glyph-name="arrowdown" unicode="&#x2193;" 
d="M-10 335l62 60l247 -257l249 256l62 -57l-286 -297h-49zM343 104h-86v516h86v-516z" />
    <glyph glyph-name="uni2199" unicode="&#x2199;" 
d="M89 550l87 -2l-7 -356l357 5l4 -85l-413 -7l-34 35zM176 137l-61 60l365 366l61 -61z" />
    <glyph glyph-name="arrowleft" unicode="&#x2190;" 
d="M295 650l60 -62l-257 -247l256 -249l-57 -62l-297 286v49zM64 297v86h516v-86h-516z" />
    <glyph glyph-name="uni2196" unicode="&#x2196;" 
d="M526 548l-2 -87l-356 7l5 -357l-85 -4l-7 413l35 34zM113 461l60 61l366 -365l-61 -61z" />
    <glyph glyph-name="arrowboth" unicode="&#x2194;" 
d="M158 505l60 -62l-122 -118l122 -119l-58 -62l-163 157v48zM51 282v85h503v-85h-503zM445 149l-59 63l119 115l-118 116l57 62l159 -153v-49z" />
    <glyph glyph-name="arrowupdn" unicode="&#x2195;" 
d="M119 157l63 60l117 -122l119 122l62 -57l-156 -163h-49zM343 50h-86v504h86v-504zM475 445l-63 -60l-115 119l-116 -118l-62 57l154 160h48z" />
    <glyph glyph-name="uni25CC" unicode="&#x25cc;" 
d="M352 768q-13 1 -26 1.5t-26 0.5h-2v-35h2q12 0 24.5 -0.5t23.5 -1.5zM198 721q13 5 25.5 7.5t25.5 3.5l-6 34q-13 -1 -26.5 -3.5t-26.5 -6.5zM459 740q-24 10 -52 16l-9 -33q12 -3 24.5 -7t23.5 -9zM106 683q11 7 22 12.5t23 10.5l-13 32q-13 -5 -25.5 -11t-23.5 -14z
M554 685q-10 8 -22 16t-23 15l-18 -31q22 -12 42 -28zM27 622q9 8 18 16.5t19 16.5l-21 27q-10 -8 -20.5 -16.5t-20.5 -19.5zM632 608q-8 11 -17.5 21t-18.5 20l-25 -24q9 -10 17.5 -19t15.5 -19zM-34 542q6 11 13.5 21.5t14.5 20.5l-28 21q-8 -11 -15.5 -23t-15.5 -23z
M688 514q-6 13 -11.5 24.5t-13.5 24.5l-31 -18q7 -10 13 -21.5t10 -23.5zM-72 448q3 13 7 25t8 23l-32 14q-5 -13 -9 -26l-8 -26zM716 408q-2 14 -4 27.5t-7 26.5l-34 -9q4 -13 6.5 -25t3.5 -24zM-85 350q0 13 1 25l2 24l-35 5q-2 -13 -2.5 -26.5t-0.5 -27.5v-1h35v1z
M716 296q2 14 3 27.5t1 26.5v3h-35v-3q0 -12 -0.5 -24.5t-1.5 -25.5zM-72 250q-3 11 -5.5 23.5t-4.5 25.5l-35 -5q2 -13 5 -26.5t6 -27.5zM688 189l10 26t8 26l-33 10q-3 -13 -7.5 -24.5t-9.5 -23.5zM-33 157q-6 11 -11.5 22.5t-10.5 22.5l-32 -14q5 -13 11 -25.5t12 -23.5z
M634 94q8 12 15.5 23.5t14.5 22.5l-30 19q-7 -12 -14 -22.5t-14 -19.5zM29 77q-10 9 -18 19t-16 19l-28 -21q8 -11 17.5 -21.5t19.5 -20.5zM557 17q11 8 21 17.5t19 19.5l-25 25q-8 -10 -17.5 -18t-20.5 -16zM109 16q-12 6 -22.5 13.5t-19.5 14.5l-21 -28q11 -7 22 -15
t22 -15zM461 -37q26 11 49 23l-16 31q-12 -6 -23.5 -12t-23.5 -10zM201 -22q-11 3 -23.5 7.5t-24.5 9.5l-14 -34q14 -5 27 -9t27 -8zM355 -67q14 2 27.5 5t27.5 6l-10 34q-12 -3 -24 -5.5t-25 -4.5zM300 -70v35q-12 0 -24.5 1t-25.5 2l-4 -35q14 -1 27 -2t27 -1z" />
    <glyph glyph-name="lozenge" unicode="&#x25ca;" 
d="M342 705h-87l-189 -353l189 -352h87l192 353zM302 633l147 -282l-147 -280h-4l-147 280l147 282h4z" />
    <glyph glyph-name="uni2500" unicode="&#x2500;" 
d="M605 390v-80h-610v80h610z" />
    <glyph glyph-name="uni2502" unicode="&#x2502;" 
d="M340 1000v-1500h-80v1500h80z" />
    <glyph glyph-name="uni250C" unicode="&#x250c;" 
d="M605 390v-80h-265v-810h-80v890h345z" />
    <glyph glyph-name="uni2510" unicode="&#x2510;" 
d="M340 390v-890h-80v810h-265v80h345z" />
    <glyph glyph-name="uni2514" unicode="&#x2514;" 
d="M340 1000v-610h265v-80h-345v690h80z" />
    <glyph glyph-name="uni2518" unicode="&#x2518;" 
d="M340 1000v-690h-345v80h265v610h80z" />
    <glyph glyph-name="uni251C" unicode="&#x251c;" 
d="M340 1000v-610h265v-80h-265v-810h-80v1500h80z" />
    <glyph glyph-name="uni2524" unicode="&#x2524;" 
d="M340 1000v-1500h-80v810h-265v80h265v610h80z" />
    <glyph glyph-name="uni252C" unicode="&#x252c;" 
d="M605 390v-80h-265v-810h-80v810h-265v80h610z" />
    <glyph glyph-name="uni2534" unicode="&#x2534;" 
d="M340 1000v-610h265v-80h-610v80h265v610h80z" />
    <glyph glyph-name="uni253C" unicode="&#x253c;" 
d="M340 1000v-610h265v-80h-265v-810h-80v810h-265v80h265v610h80z" />
    <glyph glyph-name="uni0308" unicode="&#x308;" horiz-adv-x="0" 
d="M140 630v110h110v-110h-110zM350 630v110h110v-110h-110z" />
    <glyph glyph-name="uni0307" unicode="&#x307;" horiz-adv-x="0" 
d="M243 637v114h114v-114h-114z" />
    <glyph glyph-name="gravecomb" unicode="&#x300;" horiz-adv-x="0" 
d="M388 631l36 54l-186 122l-55 -77z" />
    <glyph glyph-name="acutecomb" unicode="&#x301;" horiz-adv-x="0" 
d="M212 631l205 99l-55 77l-186 -122z" />
    <glyph glyph-name="uni030B" unicode="&#x30b;" horiz-adv-x="0" 
d="M178 590l138 181l-86 47l-110 -194zM331 590l157 165l-80 56l-132 -180z" />
    <glyph glyph-name="uni0302" unicode="&#x302;" horiz-adv-x="0" 
d="M325 777h-49l-143 -108l48 -52l118 74l120 -74l47 52z" />
    <glyph glyph-name="uni030C" unicode="&#x30c;" horiz-adv-x="0" 
d="M325 676l141 107l-47 53l-120 -74l-118 74l-48 -53l143 -107h49z" />
    <glyph glyph-name="uni0306" unicode="&#x306;" horiz-adv-x="0" 
d="M126 738v62h110v-93h128v93h110v-62l-104 -105h-140z" />
    <glyph glyph-name="uni030A" unicode="&#x30a;" horiz-adv-x="0" 
d="M253 800l-63 -64v-93l63 -63h92l65 63v93l-65 64h-92zM278 741h43l31 -30v-43l-31 -29h-43l-30 29v43z" />
    <glyph glyph-name="tildecomb" unicode="&#x303;" horiz-adv-x="0" 
d="M469 799l-81 -49l-185 49l-109 -65l37 -63l85 52l181 -52l109 65z" />
    <glyph glyph-name="uni0304" unicode="&#x304;" horiz-adv-x="0" 
d="M438 714h-276v86h276v-86z" />
    <glyph glyph-name="uni0305" unicode="&#x305;" horiz-adv-x="0" 
d="M600 800h-600v85h600v-85z" />
    <glyph glyph-name="uni030D" unicode="&#x30d;" horiz-adv-x="0" 
d="M250 520v227h100v-227h-100z" />
    <glyph glyph-name="uni030E" unicode="&#x30e;" horiz-adv-x="0" 
d="M160 520v227h100v-227h-100zM340 520v227h100v-227h-100z" />
    <glyph glyph-name="uni0310" unicode="&#x310;" horiz-adv-x="0" 
d="M126 738v62h94v-93h160v93h94v-62l-104 -105h-140zM250 775v100h100v-100h-100z" />
    <glyph glyph-name="uni0312" unicode="&#x312;" horiz-adv-x="0" 
d="M347 527v113h-60v54l49 52l-48 44l-65 -65v-198h124z" />
    <glyph glyph-name="uni0313" unicode="&#x313;" horiz-adv-x="0" 
d="M223 800v-146h60v-95l-49 -52l48 -74l95 96v271h-154z" />
    <glyph glyph-name="uni0314" unicode="&#x314;" horiz-adv-x="0" 
d="M377 800h-154v-271l95 -96l48 74l-49 52v95h60v146z" />
    <glyph glyph-name="uni0316" unicode="&#x316;" horiz-adv-x="0" 
d="M388 -176l36 54l-186 122l-55 -77z" />
    <glyph glyph-name="uni0317" unicode="&#x317;" horiz-adv-x="0" 
d="M212 -176l205 99l-55 77l-186 -122z" />
    <glyph glyph-name="dotbelowcomb" unicode="&#x323;" horiz-adv-x="0" 
d="M243 -173v113h114v-113h-114z" />
    <glyph glyph-name="uni0324" unicode="&#x324;" horiz-adv-x="0" 
d="M140 -157v110h110v-110h-110zM350 -157v110h110v-110h-110z" />
    <glyph glyph-name="uni0325" unicode="&#x325;" horiz-adv-x="0" 
d="M253 -47l-63 -64v-92l63 -63h92l65 63v92l-65 64h-92zM278 -105h43l31 -30v-44l-31 -29h-43l-30 29v44z" />
    <glyph glyph-name="uni0326" unicode="&#x326;" horiz-adv-x="0" 
d="M252 -283l132 185l-83 45l-108 -195z" />
    <glyph glyph-name="uni0327" unicode="&#x327;" horiz-adv-x="0" 
d="M243 -122h100l-100 122h97l77 -85v-41l-80 -66h-94v70z" />
    <glyph glyph-name="uni0328" unicode="&#x328;" horiz-adv-x="0" 
d="M387 -122h-100l100 122l-87 10l-87 -95v-41l80 -67h94v71z" />
    <glyph glyph-name="uni032D" unicode="&#x32d;" horiz-adv-x="0" 
d="M325 -47h-49l-143 -107l48 -53l118 74l120 -74l47 53z" />
    <glyph glyph-name="uni032E" unicode="&#x32e;" horiz-adv-x="0" 
d="M126 -109v62h110v-93h128v93h110v-62l-104 -104h-140z" />
    <glyph glyph-name="uni0331" unicode="&#x331;" horiz-adv-x="0" 
d="M438 -132h-276v85h276v-85z" />
    <glyph glyph-name="uni0335" unicode="&#x335;" horiz-adv-x="0" 
d="M430 257h-260v86h260v-86z" />
    <glyph glyph-name="uni0336" unicode="&#x336;" horiz-adv-x="0" 
d="M600 257h-600v86h600v-86z" />
    <glyph glyph-name="uni0337" unicode="&#x337;" horiz-adv-x="0" 
d="M372 644l-244 -719l80 -27l244 719z" />
    <glyph glyph-name="uni0338" unicode="&#x338;" horiz-adv-x="0" 
d="M420 785l80 -27l-293 -862l-80 27z" />
    <glyph glyph-name="dieresis" unicode="&#xa8;" 
d="M133 627v120h120v-120h-120zM347 627v120h120v-120h-120z" />
    <glyph glyph-name="dotaccent" unicode="&#x2d9;" 
d="M243 627v113h114v-113h-114z" />
    <glyph glyph-name="grave" unicode="`" 
d="M388 631l36 54l-186 122l-55 -77z" />
    <glyph glyph-name="acute" unicode="&#xb4;" 
d="M212 631l205 99l-55 77l-186 -122z" />
    <glyph glyph-name="hungarumlaut" unicode="&#x2dd;" 
d="M178 590l138 181l-86 47l-110 -194zM331 590l157 165l-80 56l-132 -180z" />
    <glyph glyph-name="circumflex" unicode="&#x2c6;" 
d="M325 777h-49l-143 -108l48 -52l118 74l120 -74l47 52z" />
    <glyph glyph-name="caron" unicode="&#x2c7;" 
d="M325 676l141 107l-47 53l-120 -74l-118 74l-48 -53l143 -107h49z" />
    <glyph glyph-name="breve" unicode="&#x2d8;" 
d="M126 738v62h110v-93h128v93h110v-62l-104 -105h-140z" />
    <glyph glyph-name="ring" unicode="&#x2da;" 
d="M253 800l-63 -64v-93l63 -63h92l65 63v93l-65 64h-92zM278 741h43l31 -30v-43l-31 -29h-43l-30 29v43z" />
    <glyph glyph-name="tilde" unicode="&#x2dc;" 
d="M469 799l-81 -49l-185 49l-109 -65l37 -63l85 52l181 -52l109 65z" />
    <glyph glyph-name="macron" unicode="&#xaf;" 
d="M438 714h-276v86h276v-86z" />
    <glyph glyph-name="cedilla" unicode="&#xb8;" 
d="M243 -122h100l-100 122h97l77 -85v-41l-80 -66h-94v70z" />
    <glyph glyph-name="ogonek" unicode="&#x2db;" 
d="M387 -122h-100l100 122h-97l-77 -85v-41l80 -67h94v71z" />
    <glyph glyph-name="caron.alt" 
d="M259 943l119 -17l-78 -232l-78 16z" />
    <glyph glyph-name="uniEE00" unicode="&#xee00;" 
d="M600 -40h-499v790h499v73h-579v-936h579v73z" />
    <glyph glyph-name="uniEE01" unicode="&#xee01;" 
d="M-7 -40v-73h614v73h-614zM-7 823v-73h614v73h-614z" />
    <glyph glyph-name="uniEE02" unicode="&#xee02;" 
d="M0 -40v-73h579v936h-579v-73h499v-790h-499z" />
    <glyph glyph-name="uniEE03" unicode="&#xee03;" 
d="M217 644v-590h383v590h-383zM600 -40h-499v790h499v73h-579v-936h579v73z" />
    <glyph glyph-name="uniEE04" unicode="&#xee04;" 
d="M-7 644v-590h614v590h-614zM-7 -40v-73h614v73h-614zM-7 823v-73h614v73h-614z" />
    <glyph glyph-name="uniEE05" unicode="&#xee05;" 
d="M383 644h-383v-590h383v590zM0 -40v-73h579v936h-579v-73h499v-790h-499z" />
    <glyph glyph-name="idotlessogonek" 
d="M113 557v-85h106l35 -53v-335h-182v-84h456v84h-182v349l-83 124h-150zM347 -112h-100l100 122l-87 10l-87 -95v-41l80 -67h94v71z" />
    <glyph glyph-name="liga.spacer" 
 />
    <glyph glyph-name="www.liga" 
d="M140 0h77l85 87l57 -87h79l144 148v333h-94v-307l-83 -82h-3l-62 90v299h-93v-328l-63 -61h-4l-81 121v268h-94v-243l-145 -146h-3l-62 90v299h-93v-328l-63 -61h-4l-131 194v195h-94v-296l-93 -93h-3l-62 90v299h-93v-328l-63 -61h-4l-81 121v268h-94v-282l135 -199h76
l85 87l58 -87h79l144 148l101 -148h77l85 87l57 -87h79l145 150z" />
  </font>
</defs>
</svg>
