<?xml version="1.0" standalone="no"?>
<!DOCTYPE svg PUBLIC "-//W3C//DTD SVG 1.1//EN" "http://www.w3.org/Graphics/SVG/1.1/DTD/svg11.dtd" >
<svg>
<metadata>
Created by FontForge 20120731 at Mon Jul  8 08:47:10 2024
 By www-data
Copyright 2023 The Kode Mono Project Authors (https://github.com/isaozler/kode-mono)
</metadata>
<defs>
<font id="KodeMono-SemiBold" horiz-adv-x="600" >
  <font-face 
    font-family="Kode Mono SemiBold"
    font-weight="600"
    font-stretch="normal"
    units-per-em="1000"
    panose-1="2 11 5 9 7 5 2 8 5 3"
    ascent="800"
    descent="-200"
    x-height="544"
    cap-height="700"
    bbox="-1180 -500 748 1011"
    underline-thickness="50"
    underline-position="-75"
    unicode-range="U+000D-FFFFF"
  />
<missing-glyph 
d="M22 484l54 -84l119 122h197l61 -90l-208 -215v-116h108v87l225 234l-132 199h-293zM411 -70h118v106h-118v-106zM411 93h118v107h-118v-107zM71 -70h117v106h-117v-106zM71 93h117v107h-117v-107zM411 -234h118v107h-118v-107zM71 -234h117v107h-117v-107zM245 -234h110
v107h-110v-107z" />
    <glyph glyph-name=".notdef" 
d="M22 484l54 -84l119 122h197l61 -90l-208 -215v-116h108v87l225 234l-132 199h-293zM411 -70h118v106h-118v-106zM411 93h118v107h-118v-107zM71 -70h117v106h-117v-106zM71 93h117v107h-117v-107zM411 -234h118v107h-118v-107zM71 -234h117v107h-117v-107zM245 -234h110
v107h-110v-107z" />
    <glyph glyph-name="A" unicode="A" 
d="M249 700l-169 -175v-525h106v306h227v-306h107v700h-271zM186 495l102 106h125v-196h-227v90z" />
    <glyph glyph-name="Aacute" unicode="&#xc1;" 
d="M249 700l-169 -175v-525h106v306h227v-306h107v700h-271zM186 495l102 106h125v-196h-227v90zM288 738l219 105l-60 85l-198 -129z" />
    <glyph glyph-name="Abreve" unicode="&#x102;" 
d="M249 700l-169 -175v-525h106v306h227v-306h107v700h-271zM186 495l102 106h125v-196h-227v90zM192 848v71h121v-93h134v93h121v-71l-108 -108h-159z" />
    <glyph glyph-name="Acircumflex" unicode="&#xc2;" 
d="M249 700l-169 -175v-525h106v306h227v-306h107v700h-271zM186 495l102 106h125v-196h-227v90zM407 909h-54l-149 -113l53 -59l123 78l124 -78l52 59z" />
    <glyph glyph-name="Adieresis" unicode="&#xc4;" 
d="M249 700l-169 -175v-525h106v306h227v-306h107v700h-271zM186 495l102 106h125v-196h-227v90zM220 740v110h110v-110h-110zM430 740v110h110v-110h-110z" />
    <glyph glyph-name="Agrave" unicode="&#xc0;" 
d="M249 700l-169 -175v-525h106v306h227v-306h107v700h-271zM186 495l102 106h125v-196h-227v90zM472 734l39 61l-198 129l-60 -85z" />
    <glyph glyph-name="Amacron" unicode="&#x100;" 
d="M249 700l-169 -175v-525h106v306h227v-306h107v700h-271zM186 495l102 106h125v-196h-227v90zM524 740h-288v99h288v-99z" />
    <glyph glyph-name="Aogonek" unicode="&#x104;" 
d="M249 700l-169 -175v-525h106v306h227v-306h107v700h-271zM186 495l102 106h125v-196h-227v90zM520 -131h-100l100 131l-100 10l-86 -101v-51l80 -67h106v78z" />
    <glyph glyph-name="Aring" unicode="&#xc5;" 
d="M249 700l-169 -175v-525h106v306h227v-306h107v700h-271zM186 495l102 106h125v-196h-227v90zM331 966l-65 -66v-95l65 -65h95l68 64v96l-68 66h-95zM360 901h39l29 -29v-40l-29 -27h-39l-28 27v40z" />
    <glyph glyph-name="Atilde" unicode="&#xc3;" 
d="M249 700l-169 -175v-525h106v306h227v-306h107v700h-271zM186 495l102 106h125v-196h-227v90zM550 880l-83 -50l-184 49l-116 -69l43 -72l86 54l181 -52l116 69z" />
    <glyph glyph-name="AE" unicode="&#xc6;" 
d="M169 713l-171 -176v-537h108v320h181v-320h315v99h-208v221h147v100h-147v194h208v99h-433zM106 507l103 107h78v-194h-181v87z" />
    <glyph glyph-name="B" unicode="B" 
d="M69 700v-700h380l89 55v209l-99 146h-16l106 111v102l-54 77h-406zM176 601h245v-49l-136 -142h-109v191zM176 311h211l45 -63v-149h-256v212z" />
    <glyph glyph-name="C" unicode="C" 
d="M169 700h293l76 -115l-70 -74l-58 89h-201l-22 -24v-428l32 -49h199l67 68l55 -83l-80 -84h-294l-86 129v481z" />
    <glyph glyph-name="Cacute" unicode="&#x106;" 
d="M169 700h293l76 -115l-70 -74l-58 89h-201l-22 -24v-428l32 -49h199l67 68l55 -83l-80 -84h-294l-86 129v481zM208 738l219 105l-60 85l-198 -129z" />
    <glyph glyph-name="Ccaron" unicode="&#x10c;" 
d="M169 700h293l76 -115l-70 -74l-58 89h-201l-22 -24v-428l32 -49h199l67 68l55 -83l-80 -84h-294l-86 129v481zM327 739l149 114l-52 58l-124 -78l-123 78l-53 -58l149 -114h54z" />
    <glyph glyph-name="Ccedilla" unicode="&#xc7;" 
d="M169 700h293l76 -115l-70 -74l-58 89h-201l-22 -24v-428l32 -49h199l67 68l55 -83l-80 -84h-294l-86 129v481zM237 -124h100l-100 131h108l78 -91v-51l-80 -67h-106v78z" />
    <glyph glyph-name="Cdotaccent" unicode="&#x10a;" 
d="M169 700h293l76 -115l-70 -74l-58 89h-201l-22 -24v-428l32 -49h199l67 68l55 -83l-80 -84h-294l-86 129v481zM237 741v126h126v-126h-126z" />
    <glyph glyph-name="D" unicode="D" 
d="M75 700h329l141 -210v-399l-87 -91h-383v700zM182 601v-502h232l24 24v348l-88 130h-168z" />
    <glyph glyph-name="Eth" unicode="&#xd0;" 
d="M75 700h329l141 -210v-399l-87 -91h-383v700zM182 601v-502h232l24 24v348l-88 130h-168zM259 291h-260v98h260v-98z" />
    <glyph glyph-name="Dcaron" unicode="&#x10e;" 
d="M75 700h329l141 -210v-399l-87 -91h-383v700zM182 601v-502h232l24 24v348l-88 130h-168zM327 739l149 114l-52 58l-124 -78l-123 78l-53 -58l149 -114h54z" />
    <glyph glyph-name="Dcroat" unicode="&#x110;" 
d="M75 700h329l141 -210v-399l-87 -91h-383v700zM182 601v-502h232l24 24v348l-88 130h-168zM259 291h-260v98h260v-98z" />
    <glyph glyph-name="E" unicode="E" 
d="M147 700l-89 -91v-480l87 -129h383v99h-330l-33 49v162h232v100h-232v166l23 25h340v99h-381z" />
    <glyph glyph-name="Eacute" unicode="&#xc9;" 
d="M147 700l-89 -91v-480l87 -129h383v99h-330l-33 49v162h232v100h-232v166l23 25h340v99h-381zM208 738l219 105l-60 85l-198 -129z" />
    <glyph glyph-name="Ecaron" unicode="&#x11a;" 
d="M147 700l-89 -91v-480l87 -129h383v99h-330l-33 49v162h232v100h-232v166l23 25h340v99h-381zM327 739l149 114l-52 58l-124 -78l-123 78l-53 -58l149 -114h54z" />
    <glyph glyph-name="Ecircumflex" unicode="&#xca;" 
d="M147 700l-89 -91v-480l87 -129h383v99h-330l-33 49v162h232v100h-232v166l23 25h340v99h-381zM327 909h-54l-149 -113l53 -59l123 78l124 -78l52 59z" />
    <glyph glyph-name="Edieresis" unicode="&#xcb;" 
d="M147 700l-89 -91v-480l87 -129h383v99h-330l-33 49v162h232v100h-232v166l23 25h340v99h-381zM140 740v110h110v-110h-110zM350 740v110h110v-110h-110z" />
    <glyph glyph-name="Edotaccent" unicode="&#x116;" 
d="M147 700l-89 -91v-480l87 -129h383v99h-330l-33 49v162h232v100h-232v166l23 25h340v99h-381zM237 741v126h126v-126h-126z" />
    <glyph glyph-name="Egrave" unicode="&#xc8;" 
d="M147 700l-89 -91v-480l87 -129h383v99h-330l-33 49v162h232v100h-232v166l23 25h340v99h-381zM392 734l39 61l-198 129l-60 -85z" />
    <glyph glyph-name="Emacron" unicode="&#x112;" 
d="M147 700l-89 -91v-480l87 -129h383v99h-330l-33 49v162h232v100h-232v166l23 25h340v99h-381zM444 740h-288v99h288v-99z" />
    <glyph glyph-name="Eogonek" unicode="&#x118;" 
d="M147 700l-89 -91v-480l87 -129h383v99h-330l-33 49v162h232v100h-232v166l23 25h340v99h-381zM353 -121h-100l100 131l-100 10l-86 -101v-51l80 -67h106v78z" />
    <glyph glyph-name="F" unicode="F" 
d="M195 700l-106 -108v-592h107v311h218v100h-218v148l40 42h296v99h-337z" />
    <glyph glyph-name="G" unicode="G" 
d="M150 700l-88 -92v-484l83 -124h386v351l-47 71h-201v-98h141v-225h-226l-28 44v434l22 24h198l59 -88l70 72l-77 115h-292z" />
    <glyph glyph-name="Gbreve" unicode="&#x11e;" 
d="M150 700l-88 -92v-484l83 -124h386v351l-47 71h-201v-98h141v-225h-226l-28 44v434l22 24h198l59 -88l70 72l-77 115h-292zM112 848v71h121v-93h134v93h121v-71l-108 -108h-159z" />
    <glyph glyph-name="uni0122" unicode="&#x122;" 
d="M150 700l-88 -92v-484l83 -124h386v351l-47 71h-201v-98h141v-225h-226l-28 44v434l22 24h198l59 -88l70 72l-77 115h-292zM249 -304l144 194l-92 49l-117 -204z" />
    <glyph glyph-name="Gdotaccent" unicode="&#x120;" 
d="M150 700l-88 -92v-484l83 -124h386v351l-47 71h-201v-98h141v-225h-226l-28 44v434l22 24h198l59 -88l70 72l-77 115h-292zM237 741v126h126v-126h-126z" />
    <glyph glyph-name="H" unicode="H" 
d="M65 700h107v-314l65 37h127l64 -37v314h107v-700h-107v278l-32 46h-203l-21 -22v-302h-107v700z" />
    <glyph glyph-name="Hbar" unicode="&#x126;" 
d="M65 700h107v-314l65 37h127l64 -37v314h107v-700h-107v278l-32 46h-203l-21 -22v-302h-107v700zM600 501h-600v98h600v-98z" />
    <glyph glyph-name="I" unicode="I" 
d="M65 700v-100h181v-500h-181v-100h470v100h-182v500h182v100h-470z" />
    <glyph glyph-name="IJ" unicode="&#x132;" 
d="M18 715v-99h136l32 -49v-567h107v577l37 39h126l-28 -39v-536l-104 -111h-138v-99h180l168 178v607h48v99h-293l-47 -50l-36 50h-188z" />
    <glyph glyph-name="Iacute" unicode="&#xcd;" 
d="M65 700v-100h181v-500h-181v-100h470v100h-182v500h182v100h-470zM208 762l219 105l-60 85l-198 -129z" />
    <glyph glyph-name="Icircumflex" unicode="&#xce;" 
d="M65 700v-100h181v-500h-181v-100h470v100h-182v500h182v100h-470zM327 933h-54l-149 -113l53 -59l123 78l124 -78l52 59z" />
    <glyph glyph-name="Idieresis" unicode="&#xcf;" 
d="M65 700v-100h181v-500h-181v-100h470v100h-182v500h182v100h-470zM140 764v110h110v-110h-110zM350 764v110h110v-110h-110z" />
    <glyph glyph-name="Idotaccent" unicode="&#x130;" 
d="M65 700v-100h181v-500h-181v-100h470v100h-182v500h182v100h-470zM237 765v126h126v-126h-126z" />
    <glyph glyph-name="Igrave" unicode="&#xcc;" 
d="M65 700v-100h181v-500h-181v-100h470v100h-182v500h182v100h-470zM392 758l39 61l-198 129l-60 -85z" />
    <glyph glyph-name="Imacron" unicode="&#x12a;" 
d="M65 700v-100h181v-500h-181v-100h470v100h-182v500h182v100h-470zM444 764h-288v99h288v-99z" />
    <glyph glyph-name="Iogonek" unicode="&#x12e;" 
d="M65 700v-100h181v-500h-181v-100h470v100h-182v500h182v100h-470zM353 -121h-100l100 131l-100 10l-86 -101v-51l80 -67h106v78z" />
    <glyph glyph-name="J" unicode="J" 
d="M99 700v-100h295v-464l-104 -109h-111v-100h154l168 178v595h-402z" />
    <glyph glyph-name="K" unicode="K" 
d="M420 700l-282 -288v288h-108v-700h108v268l77 79l238 -347h117l-281 419l273 281h-142z" />
    <glyph glyph-name="uni0136" unicode="&#x136;" 
d="M420 700l-282 -288v288h-108v-700h108v268l77 79l238 -347h117l-281 419l273 281h-142zM249 -304l144 194l-92 49l-117 -204z" />
    <glyph glyph-name="L" unicode="L" 
d="M65 700v-567l88 -133h382v172h-107v-72h-222l-34 49v551h-107z" />
    <glyph glyph-name="Lacute" unicode="&#x139;" 
d="M65 700v-567l88 -133h382v172h-107v-72h-222l-34 49v551h-107zM27 748l219 105l-60 85l-198 -129z" />
    <glyph glyph-name="Lcaron" unicode="&#x13d;" 
d="M65 700v-567l88 -133h382v172h-107v-72h-222l-34 49v551h-107zM350 734l129 -17l-78 -232l-88 16z" />
    <glyph glyph-name="uni013B" unicode="&#x13b;" 
d="M65 700v-567l88 -133h382v172h-107v-72h-222l-34 49v551h-107zM249 -304l144 194l-92 49l-117 -204z" />
    <glyph glyph-name="Lslash" unicode="&#x141;" 
d="M65 700v-567l88 -133h382v172h-107v-72h-222l-34 49v551h-107zM366 646l-244 -719l92 -31l245 719z" />
    <glyph glyph-name="M" unicode="M" 
d="M66 700v-700h107v521l82 -122v-12h87v73l86 96v-556h107v700h-107l-150 -173l-105 156v17h-107z" />
    <glyph glyph-name="N" unicode="N" 
d="M428 700v-284l-184 284h-178v-700h107v587h18l237 -351v-236h107v700h-107z" />
    <glyph glyph-name="Nacute" unicode="&#x143;" 
d="M428 700v-284l-184 284h-178v-700h107v587h18l237 -351v-236h107v700h-107zM208 738l219 105l-60 85l-198 -129z" />
    <glyph glyph-name="Ncaron" unicode="&#x147;" 
d="M428 700v-284l-184 284h-178v-700h107v587h18l237 -351v-236h107v700h-107zM327 739l149 114l-52 58l-124 -78l-123 78l-53 -58l149 -114h54z" />
    <glyph glyph-name="uni0145" unicode="&#x145;" 
d="M428 700v-284l-184 284h-178v-700h107v587h18l237 -351v-236h107v700h-107zM249 -304l144 194l-92 49l-117 -204z" />
    <glyph glyph-name="Ntilde" unicode="&#xd1;" 
d="M428 700v-284l-184 284h-178v-700h107v587h18l237 -351v-236h107v700h-107zM470 880l-83 -50l-184 49l-116 -69l43 -72l86 54l181 -52l116 69z" />
    <glyph glyph-name="O" unicode="O" 
d="M154 700h296l85 -129v-479l-87 -92h-295l-88 129v479zM173 147l32 -48h199l23 25v429l-32 48h-200l-22 -25v-429z" />
    <glyph glyph-name="Oacute" unicode="&#xd3;" 
d="M154 700h296l85 -129v-479l-87 -92h-295l-88 129v479zM173 147l32 -48h199l23 25v429l-32 48h-200l-22 -25v-429zM208 738l219 105l-60 85l-198 -129z" />
    <glyph glyph-name="Ocircumflex" unicode="&#xd4;" 
d="M154 700h296l85 -129v-479l-87 -92h-295l-88 129v479zM173 147l32 -48h199l23 25v429l-32 48h-200l-22 -25v-429zM327 909h-54l-149 -113l53 -59l123 78l124 -78l52 59z" />
    <glyph glyph-name="Odieresis" unicode="&#xd6;" 
d="M154 700h296l85 -129v-479l-87 -92h-295l-88 129v479zM173 147l32 -48h199l23 25v429l-32 48h-200l-22 -25v-429zM140 740v110h110v-110h-110zM350 740v110h110v-110h-110z" />
    <glyph glyph-name="Ograve" unicode="&#xd2;" 
d="M154 700h296l85 -129v-479l-87 -92h-295l-88 129v479zM173 147l32 -48h199l23 25v429l-32 48h-200l-22 -25v-429zM392 734l39 61l-198 129l-60 -85z" />
    <glyph glyph-name="Ohungarumlaut" unicode="&#x150;" 
d="M154 700h296l85 -129v-479l-87 -92h-295l-88 129v479zM173 147l32 -48h199l23 25v429l-32 48h-200l-22 -25v-429zM223 737l147 193l-93 50l-118 -204zM386 737l168 174l-86 61l-140 -190z" />
    <glyph glyph-name="Oslash" unicode="&#xd8;" 
d="M154 700h296l85 -129v-479l-87 -92h-295l-88 129v479zM173 147l32 -48h199l23 25v429l-32 48h-200l-22 -25v-429zM416 794l93 -31l-298 -876l-92 31z" />
    <glyph glyph-name="Otilde" unicode="&#xd5;" 
d="M154 700h296l85 -129v-479l-87 -92h-295l-88 129v479zM173 147l32 -48h199l23 25v429l-32 48h-200l-22 -25v-429zM470 880l-83 -50l-184 49l-116 -69l43 -72l86 54l181 -52l116 69z" />
    <glyph glyph-name="OE" unicode="&#x152;" 
d="M106 590l22 24h127l32 -48v-442l-23 -25h-126l-32 48v443zM394 324h147v99h-147v161l-20 30h228v99h-515l-89 -91v-493l88 -129h516v99h-223l15 15v210z" />
    <glyph glyph-name="P" unicode="P" 
d="M65 700v-700h107v310h276l87 89v172l-86 129h-384zM173 601h222l33 -49v-121l-23 -24h-168l-64 -37v231z" />
    <glyph glyph-name="Thorn" unicode="&#xde;" 
d="M66 744v-744h106v136l66 -37h207l89 92v303l-87 131h-212l-63 -38v157h-106zM172 501l24 24h199l33 -48v-255l-23 -23h-233v302z" />
    <glyph glyph-name="Q" unicode="Q" 
d="M156 700l-90 -92v-479l87 -129h258l33 -46l81 56l-133 197l-81 -57l35 -51h-141l-32 49v429l21 23h201l32 -46v-394l107 112v299l-88 129h-290z" />
    <glyph glyph-name="R" unicode="R" 
d="M65 700v-700h107v347l62 -39h99l95 -137v-171h107v188l-94 137l94 97v112l-114 166h-356zM172 601h196l60 -87v-62l-43 -44h-213v193z" />
    <glyph glyph-name="Racute" unicode="&#x154;" 
d="M65 700v-700h107v347l62 -39h99l95 -137v-171h107v188l-94 137l94 97v112l-114 166h-356zM172 601h196l60 -87v-62l-43 -44h-213v193zM208 738l219 105l-60 85l-198 -129z" />
    <glyph glyph-name="Rcaron" unicode="&#x158;" 
d="M65 700v-700h107v347l62 -39h99l95 -137v-171h107v188l-94 137l94 97v112l-114 166h-356zM172 601h196l60 -87v-62l-43 -44h-213v193zM327 739l149 114l-52 58l-124 -78l-123 78l-53 -58l149 -114h54z" />
    <glyph glyph-name="S" unicode="S" 
d="M155 700h296l64 -97l-72 -70l-46 68h-201l-22 -24v-121l34 -48h252l77 -116v-211l-78 -81h-342l-54 77l69 72l37 -50h245l16 13v163l-24 33h-252l-87 129v171z" />
    <glyph glyph-name="Sacute" unicode="&#x15a;" 
d="M155 700h296l64 -97l-72 -70l-46 68h-201l-22 -24v-121l34 -48h252l77 -116v-211l-78 -81h-342l-54 77l69 72l37 -50h245l16 13v163l-24 33h-252l-87 129v171zM208 738l219 105l-60 85l-198 -129z" />
    <glyph glyph-name="Scaron" unicode="&#x160;" 
d="M155 700h296l64 -97l-72 -70l-46 68h-201l-22 -24v-121l34 -48h252l77 -116v-211l-78 -81h-342l-54 77l69 72l37 -50h245l16 13v163l-24 33h-252l-87 129v171zM327 739l149 114l-52 58l-124 -78l-123 78l-53 -58l149 -114h54z" />
    <glyph glyph-name="Scedilla" unicode="&#x15e;" 
d="M155 700h296l64 -97l-72 -70l-46 68h-201l-22 -24v-121l34 -48h252l77 -116v-211l-78 -81h-342l-54 77l69 72l37 -50h245l16 13v163l-24 33h-252l-87 129v171zM237 -124h100l-100 131h108l78 -91v-51l-80 -67h-106v78z" />
    <glyph glyph-name="uni0218" unicode="&#x218;" 
d="M155 700h296l64 -97l-72 -70l-46 68h-201l-22 -24v-121l34 -48h252l77 -116v-211l-78 -81h-342l-54 77l69 72l37 -50h245l16 13v163l-24 33h-252l-87 129v171zM249 -304l144 194l-92 49l-117 -204z" />
    <glyph glyph-name="uni1E9E" unicode="&#x1e9e;" 
d="M233 727l-168 -174v-553h107v520l103 108h125l-184 -191v-100h151l60 -89v-120l-26 -29h-116v-99h157l92 96v169l-115 172h-65l181 188v102h-302z" />
    <glyph glyph-name="T" unicode="T" 
d="M39 700h522v-99h-277l70 -56v-545h-107v523l-32 78h-176v99z" />
    <glyph glyph-name="Tcaron" unicode="&#x164;" 
d="M39 700h522v-99h-277l70 -56v-545h-107v523l-32 78h-176v99zM327 739l149 114l-52 58l-124 -78l-123 78l-53 -58l149 -114h54z" />
    <glyph glyph-name="uni021A" unicode="&#x21a;" 
d="M39 700h522v-99h-277l70 -56v-545h-107v523l-32 78h-176v99zM249 -304l144 194l-92 49l-117 -204z" />
    <glyph glyph-name="U" unicode="U" 
d="M428 700v-576l-24 -25h-200l-32 49v552h-107v-571l87 -129h212l64 39v-39h107v700h-107z" />
    <glyph glyph-name="Uacute" unicode="&#xda;" 
d="M428 700v-576l-24 -25h-200l-32 49v552h-107v-571l87 -129h212l64 39v-39h107v700h-107zM208 738l219 105l-60 85l-198 -129z" />
    <glyph glyph-name="Ucircumflex" unicode="&#xdb;" 
d="M428 700v-576l-24 -25h-200l-32 49v552h-107v-571l87 -129h212l64 39v-39h107v700h-107zM327 909h-54l-149 -113l53 -59l123 78l124 -78l52 59z" />
    <glyph glyph-name="Udieresis" unicode="&#xdc;" 
d="M428 700v-576l-24 -25h-200l-32 49v552h-107v-571l87 -129h212l64 39v-39h107v700h-107zM140 740v110h110v-110h-110zM350 740v110h110v-110h-110z" />
    <glyph glyph-name="Ugrave" unicode="&#xd9;" 
d="M428 700v-576l-24 -25h-200l-32 49v552h-107v-571l87 -129h212l64 39v-39h107v700h-107zM392 734l39 61l-198 129l-60 -85z" />
    <glyph glyph-name="Uhungarumlaut" unicode="&#x170;" 
d="M428 700v-576l-24 -25h-200l-32 49v552h-107v-571l87 -129h212l64 39v-39h107v700h-107zM223 737l147 193l-93 50l-118 -204zM386 737l168 174l-86 61l-140 -190z" />
    <glyph glyph-name="Umacron" unicode="&#x16a;" 
d="M428 700v-576l-24 -25h-200l-32 49v552h-107v-571l87 -129h212l64 39v-39h107v700h-107zM444 740h-288v99h288v-99z" />
    <glyph glyph-name="Uogonek" unicode="&#x172;" 
d="M428 700v-576l-24 -25h-200l-32 49v552h-107v-571l87 -129h212l64 39v-39h107v700h-107zM535 -131h-100l100 131l-100 10l-86 -101v-51l80 -67h106v78z" />
    <glyph glyph-name="Uring" unicode="&#x16e;" 
d="M428 700v-576l-24 -25h-200l-32 49v552h-107v-571l87 -129h212l64 39v-39h107v700h-107zM251 966l-65 -66v-95l65 -65h95l68 64v96l-68 66h-95zM280 901h39l29 -29v-40l-29 -27h-39l-28 27v40z" />
    <glyph glyph-name="V" unicode="V" 
d="M427 700v-435l-152 -159l-102 152v442h-107v-461l161 -239h83l224 235v465h-107z" />
    <glyph glyph-name="W" unicode="W" 
d="M45 700v-541l106 -159h90l64 69l43 -69h93l113 117v583h-107v-541l-37 -41h-11l-46 72v237h-107v-267l-42 -41h-11l-41 62v519h-107z" />
    <glyph glyph-name="Wacute" unicode="&#x1e82;" 
d="M45 700v-541l106 -159h90l64 69l43 -69h93l113 117v583h-107v-541l-37 -41h-11l-46 72v237h-107v-267l-42 -41h-11l-41 62v519h-107zM208 738l219 105l-60 85l-198 -129z" />
    <glyph glyph-name="Wcircumflex" unicode="&#x174;" 
d="M45 700v-541l106 -159h90l64 69l43 -69h93l113 117v583h-107v-541l-37 -41h-11l-46 72v237h-107v-267l-42 -41h-11l-41 62v519h-107zM327 909h-54l-149 -113l53 -59l123 78l124 -78l52 59z" />
    <glyph glyph-name="Wdieresis" unicode="&#x1e84;" 
d="M45 700v-541l106 -159h90l64 69l43 -69h93l113 117v583h-107v-541l-37 -41h-11l-46 72v237h-107v-267l-42 -41h-11l-41 62v519h-107zM140 740v110h110v-110h-110zM350 740v110h110v-110h-110z" />
    <glyph glyph-name="Wgrave" unicode="&#x1e80;" 
d="M45 700v-541l106 -159h90l64 69l43 -69h93l113 117v583h-107v-541l-37 -41h-11l-46 72v237h-107v-267l-42 -41h-11l-41 62v519h-107zM392 734l39 61l-198 129l-60 -85z" />
    <glyph glyph-name="X" unicode="X" 
d="M414 700v-175l-109 -114h-68l-52 79v210h-107v-229l97 -142l-97 -99v-230h107v198l110 114h65l54 -76v-236h108v255l-97 142l97 98v205h-108z" />
    <glyph glyph-name="Y" unicode="Y" 
d="M427 700h107v-183l-181 -188v-329h-107v322l-181 269v109h107v-93l127 -189h2l126 131v151z" />
    <glyph glyph-name="Yacute" unicode="&#xdd;" 
d="M427 700h107v-183l-181 -188v-329h-107v322l-181 269v109h107v-93l127 -189h2l126 131v151zM208 738l219 105l-60 85l-198 -129z" />
    <glyph glyph-name="Ycircumflex" unicode="&#x176;" 
d="M427 700h107v-183l-181 -188v-329h-107v322l-181 269v109h107v-93l127 -189h2l126 131v151zM327 909h-54l-149 -113l53 -59l123 78l124 -78l52 59z" />
    <glyph glyph-name="Ydieresis" unicode="&#x178;" 
d="M427 700h107v-183l-181 -188v-329h-107v322l-181 269v109h107v-93l127 -189h2l126 131v151zM140 740v110h110v-110h-110zM350 740v110h110v-110h-110z" />
    <glyph glyph-name="Ygrave" unicode="&#x1ef2;" 
d="M427 700h107v-183l-181 -188v-329h-107v322l-181 269v109h107v-93l127 -189h2l126 131v151zM392 734l39 61l-198 129l-60 -85z" />
    <glyph glyph-name="Z" unicode="Z" 
d="M65 700v-99h363v-62l-95 -100l25 -16h-162v-99h24l-155 -161v-163h470v99h-363v35l171 176l-23 14h148v99h-12l79 84v193h-470z" />
    <glyph glyph-name="Zacute" unicode="&#x179;" 
d="M65 700v-99h363v-62l-95 -100l25 -16h-162v-99h24l-155 -161v-163h470v99h-363v35l171 176l-23 14h148v99h-12l79 84v193h-470zM208 738l219 105l-60 85l-198 -129z" />
    <glyph glyph-name="Zcaron" unicode="&#x17d;" 
d="M65 700v-99h363v-62l-95 -100l25 -16h-162v-99h24l-155 -161v-163h470v99h-363v35l171 176l-23 14h148v99h-12l79 84v193h-470zM327 739l149 114l-52 58l-124 -78l-123 78l-53 -58l149 -114h54z" />
    <glyph glyph-name="Zdotaccent" unicode="&#x17b;" 
d="M65 700v-99h363v-62l-95 -100l25 -16h-162v-99h24l-155 -161v-163h470v99h-363v35l171 176l-23 14h148v99h-12l79 84v193h-470zM237 741v126h126v-126h-126z" />
    <glyph glyph-name="a" unicode="a" 
d="M143 553v-99h286v-108h-208l-159 -166v-49l88 -131h215l64 39v-39h109v453l-68 100h-327zM173 149v4l89 91h165v-143h-228z" />
    <glyph glyph-name="aacute" unicode="&#xe1;" 
d="M143 553v-99h286v-108h-208l-159 -166v-49l88 -131h215l64 39v-39h109v453l-68 100h-327zM173 149v4l89 91h165v-143h-228zM221 608l219 105l-60 85l-198 -129z" />
    <glyph glyph-name="abreve" unicode="&#x103;" 
d="M143 553v-99h286v-108h-208l-159 -166v-49l88 -131h215l64 39v-39h109v453l-68 100h-327zM173 149v4l89 91h165v-143h-228zM125 718v71h121v-93h134v93h121v-71l-108 -108h-159z" />
    <glyph glyph-name="acircumflex" unicode="&#xe2;" 
d="M143 553v-99h286v-108h-208l-159 -166v-49l88 -131h215l64 39v-39h109v453l-68 100h-327zM173 149v4l89 91h165v-143h-228zM340 778h-54l-149 -113l53 -59l123 78l124 -78l52 59z" />
    <glyph glyph-name="adieresis" unicode="&#xe4;" 
d="M143 553v-99h286v-108h-208l-159 -166v-49l88 -131h215l64 39v-39h109v453l-68 100h-327zM173 149v4l89 91h165v-143h-228zM153 609v110h110v-110h-110zM363 609v110h110v-110h-110z" />
    <glyph glyph-name="agrave" unicode="&#xe0;" 
d="M143 553v-99h286v-108h-208l-159 -166v-49l88 -131h215l64 39v-39h109v453l-68 100h-327zM173 149v4l89 91h165v-143h-228zM405 604l39 61l-198 129l-60 -85z" />
    <glyph glyph-name="amacron" unicode="&#x101;" 
d="M143 553v-99h286v-108h-208l-159 -166v-49l88 -131h215l64 39v-39h109v453l-68 100h-327zM173 149v4l89 91h165v-143h-228zM457 610h-288v99h288v-99z" />
    <glyph glyph-name="aogonek" unicode="&#x105;" 
d="M143 553v-99h286v-108h-208l-159 -166v-49l88 -131h215l64 39v-39h109v453l-68 100h-327zM173 149v4l89 91h165v-143h-228zM538 -131h-100l100 131l-100 10l-86 -101v-51l80 -67h106v78z" />
    <glyph glyph-name="aring" unicode="&#xe5;" 
d="M143 553v-99h286v-108h-208l-159 -166v-49l88 -131h215l64 39v-39h109v453l-68 100h-327zM173 149v4l89 91h165v-143h-228zM264 836l-65 -66v-95l65 -65h95l68 64v96l-68 66h-95zM293 771h39l29 -29v-40l-29 -27h-39l-28 27v40z" />
    <glyph glyph-name="atilde" unicode="&#xe3;" 
d="M143 553v-99h286v-108h-208l-159 -166v-49l88 -131h215l64 39v-39h109v453l-68 100h-327zM173 149v4l89 91h165v-143h-228zM483 750l-83 -50l-184 49l-116 -69l43 -72l86 54l181 -52l116 69z" />
    <glyph glyph-name="ae" unicode="&#xe6;" 
d="M77 558v-99h174v-118h-97l-157 -163v-49l87 -129h183l27 56l37 -56h181l80 85l-56 83l-66 -69h-82l-33 48v94h73l175 183l-90 134h-180l-28 -29l-20 29h-208zM355 435l23 24h82l16 -24l-90 -94h-31v94zM104 147v4l92 90h55v-104l-24 -38h-92z" />
    <glyph glyph-name="b" unicode="b" 
d="M65 761v-761h108v38l64 -38h210l89 93v321l-88 131h-213l-62 -38v254h-108zM173 421l24 25h198l33 -49v-273l-22 -24h-233v321z" />
    <glyph glyph-name="c" unicode="c" 
d="M155 546h294l79 -118l-69 -71l-60 87h-197l-25 -26v-275l33 -50h199l65 66l52 -78l-78 -81h-293l-86 127v330z" />
    <glyph glyph-name="cacute" unicode="&#x107;" 
d="M155 546h294l79 -118l-69 -71l-60 87h-197l-25 -26v-275l33 -50h199l65 66l52 -78l-78 -81h-293l-86 127v330zM208 624l219 105l-60 85l-198 -129z" />
    <glyph glyph-name="ccaron" unicode="&#x10d;" 
d="M155 546h294l79 -118l-69 -71l-60 87h-197l-25 -26v-275l33 -50h199l65 66l52 -78l-78 -81h-293l-86 127v330zM327 625l149 114l-52 58l-124 -78l-123 78l-53 -58l149 -114h54z" />
    <glyph glyph-name="ccedilla" unicode="&#xe7;" 
d="M155 546h294l79 -118l-69 -71l-60 87h-197l-25 -26v-275l33 -50h199l65 66l52 -78l-78 -81h-293l-86 127v330zM237 -124h100l-100 131h108l78 -91v-51l-80 -67h-106v78z" />
    <glyph glyph-name="cdotaccent" unicode="&#x10b;" 
d="M155 546h294l79 -118l-69 -71l-60 87h-197l-25 -26v-275l33 -50h199l65 66l52 -78l-78 -81h-293l-86 127v330zM237 627v126h126v-126h-126z" />
    <glyph glyph-name="d" unicode="d" 
d="M431 762h108v-762h-108v38l-62 -38h-211l-89 130v322l89 93h210l63 -38v255zM177 148l32 -48h201l21 22v275l-32 49h-198l-24 -25v-273z" />
    <glyph glyph-name="eth" unicode="&#xf0;" 
d="M153 733l-31 -91l100 -33l-52 -50l74 -73l69 69l82 -82l17 -66l-109 57l-167 -65l-71 -190l70 -189l170 -73l168 73l62 189v104l-54 204l-103 107l60 61l-74 73l-71 -73zM212 93l-46 116l51 126l81 32l133 -70l5 -71l-44 -133l-87 -41z" />
    <glyph glyph-name="dcaron" unicode="&#x10f;" 
d="M431 762h108v-762h-108v38l-62 -38h-211l-89 130v322l89 93h210l63 -38v255zM177 148l32 -48h201l21 22v275l-32 49h-198l-24 -25v-273zM619 810l129 -17l-78 -232l-88 16z" />
    <glyph glyph-name="dcroat" unicode="&#x111;" 
d="M431 762h108v-762h-108v38l-62 -38h-211l-89 130v322l89 93h210l63 -38v255zM177 148l32 -48h201l21 22v275l-32 49h-198l-24 -25v-273zM602 595h-260v98h260v-98z" />
    <glyph glyph-name="e" unicode="e" 
d="M155 546l-86 -89v-330l85 -127h290l78 81l-62 77l-55 -57h-199l-34 51v85h188l173 178l-88 131h-290zM172 418l26 26h186l20 -28l-83 -87h-149v89z" />
    <glyph glyph-name="eacute" unicode="&#xe9;" 
d="M155 546l-86 -89v-330l85 -127h290l78 81l-62 77l-55 -57h-199l-34 51v85h188l173 178l-88 131h-290zM172 418l26 26h186l20 -28l-83 -87h-149v89zM206 612l219 105l-60 85l-198 -129z" />
    <glyph glyph-name="ecaron" unicode="&#x11b;" 
d="M155 546l-86 -89v-330l85 -127h290l78 81l-62 77l-55 -57h-199l-34 51v85h188l173 178l-88 131h-290zM172 418l26 26h186l20 -28l-83 -87h-149v89zM325 613l149 114l-52 58l-124 -78l-123 78l-53 -58l149 -114h54z" />
    <glyph glyph-name="ecircumflex" unicode="&#xea;" 
d="M155 546l-86 -89v-330l85 -127h290l78 81l-62 77l-55 -57h-199l-34 51v85h188l173 178l-88 131h-290zM172 418l26 26h186l20 -28l-83 -87h-149v89zM325 782h-54l-149 -113l53 -59l123 78l124 -78l52 59z" />
    <glyph glyph-name="edieresis" unicode="&#xeb;" 
d="M155 546l-86 -89v-330l85 -127h290l78 81l-62 77l-55 -57h-199l-34 51v85h188l173 178l-88 131h-290zM172 418l26 26h186l20 -28l-83 -87h-149v89zM138 613v110h110v-110h-110zM348 613v110h110v-110h-110z" />
    <glyph glyph-name="edotaccent" unicode="&#x117;" 
d="M155 546l-86 -89v-330l85 -127h290l78 81l-62 77l-55 -57h-199l-34 51v85h188l173 178l-88 131h-290zM172 418l26 26h186l20 -28l-83 -87h-149v89zM235 614v126h126v-126h-126z" />
    <glyph glyph-name="egrave" unicode="&#xe8;" 
d="M155 546l-86 -89v-330l85 -127h290l78 81l-62 77l-55 -57h-199l-34 51v85h188l173 178l-88 131h-290zM172 418l26 26h186l20 -28l-83 -87h-149v89zM390 608l39 61l-198 129l-60 -85z" />
    <glyph glyph-name="emacron" unicode="&#x113;" 
d="M155 546l-86 -89v-330l85 -127h290l78 81l-62 77l-55 -57h-199l-34 51v85h188l173 178l-88 131h-290zM172 418l26 26h186l20 -28l-83 -87h-149v89zM442 614h-288v99h288v-99z" />
    <glyph glyph-name="eogonek" unicode="&#x119;" 
d="M155 546l-86 -89v-330l85 -127h290l78 81l-62 77l-55 -57h-199l-34 51v85h188l173 178l-88 131h-290zM172 418l26 26h186l20 -28l-83 -87h-149v89zM351 -121h-100l100 131l-100 10l-86 -101v-51l80 -67h106v78z" />
    <glyph glyph-name="f" unicode="f" 
d="M245 700l-99 -102v-175h-80v-98h80v-325h107v325h173v98h-173v141l36 37h137l39 -57l70 72l-58 84h-232z" />
    <glyph glyph-name="g" unicode="g" 
d="M239 36h176l10 -14v-62l-74 -73h-128l-30 45v62zM186 412l36 39h171l32 -46v-65l-70 -44h-169v116zM363 196l170 104v251h-108v-38l-62 38h-182l-102 -106v-194l36 -22l-52 -50l72 -108l-53 -53v-110l90 -121h221l143 136v110l-67 104h-261l-17 29l28 30h144z" />
    <glyph glyph-name="gbreve" unicode="&#x11f;" 
d="M239 36h176l10 -14v-62l-74 -73h-128l-30 45v62zM186 412l36 39h171l32 -46v-65l-70 -44h-169v116zM363 196l170 104v251h-108v-38l-62 38h-182l-102 -106v-194l36 -22l-52 -50l72 -108l-53 -53v-110l90 -121h221l143 136v110l-67 104h-261l-17 29l28 30h144zM92 714v71
h121v-93h134v93h121v-71l-108 -108h-159z" />
    <glyph glyph-name="uni0123" unicode="&#x123;" 
d="M239 36h176l10 -14v-62l-74 -73h-128l-30 45v62zM186 412l36 39h171l32 -46v-65l-70 -44h-169v116zM363 196l170 104v251h-108v-38l-62 38h-182l-102 -106v-194l36 -22l-52 -50l72 -108l-53 -53v-110l90 -121h221l143 136v110l-67 104h-261l-17 29l28 30h144zM344 629
v123h-61v56l52 53l-56 56l-73 -74v-214h138z" />
    <glyph glyph-name="gdotaccent" unicode="&#x121;" 
d="M239 36h176l10 -14v-62l-74 -73h-128l-30 45v62zM186 412l36 39h171l32 -46v-65l-70 -44h-169v116zM363 196l170 104v251h-108v-38l-62 38h-182l-102 -106v-194l36 -22l-52 -50l72 -108l-53 -53v-110l90 -121h221l143 136v110l-67 104h-261l-17 29l28 30h144zM217 607
v126h126v-126h-126z" />
    <glyph glyph-name="h" unicode="h" 
d="M66 762h107v-256l63 38h210l89 -126v-418h-107v399l-32 47h-199l-24 -23v-423h-107v762z" />
    <glyph glyph-name="hbar" unicode="&#x127;" 
d="M66 762h107v-256l63 38h210l89 -126v-418h-107v399l-32 47h-199l-24 -23v-423h-107v762zM260 608h-260v98h260v-98z" />
    <glyph glyph-name="i" unicode="i" 
d="M107 563v-97h108l33 -48v-321h-182v-97h468v97h-182v338l-86 128h-159zM237 681v126h126v-126h-126z" />
    <glyph glyph-name="dotlessi" unicode="&#x131;" 
d="M107 563v-97h108l33 -48v-321h-182v-97h468v97h-182v338l-86 128h-159z" />
    <glyph glyph-name="iacute" unicode="&#xed;" 
d="M107 563v-97h108l33 -48v-321h-182v-97h468v97h-182v338l-86 128h-159zM208 678l219 105l-60 85l-198 -129z" />
    <glyph glyph-name="icircumflex" unicode="&#xee;" 
d="M107 563v-97h108l33 -48v-321h-182v-97h468v97h-182v338l-86 128h-159zM327 849h-54l-149 -113l53 -59l123 78l124 -78l52 59z" />
    <glyph glyph-name="idieresis" unicode="&#xef;" 
d="M107 563v-97h108l33 -48v-321h-182v-97h468v97h-182v338l-86 128h-159zM140 680v110h110v-110h-110zM350 680v110h110v-110h-110z" />
    <glyph glyph-name="i.loclTRK" 
d="M107 563v-97h108l33 -48v-321h-182v-97h468v97h-182v338l-86 128h-159zM237 681v126h126v-126h-126z" />
    <glyph glyph-name="igrave" unicode="&#xec;" 
d="M107 563v-97h108l33 -48v-321h-182v-97h468v97h-182v338l-86 128h-159zM392 674l39 61l-198 129l-60 -85z" />
    <glyph glyph-name="ij" unicode="&#x133;" 
d="M65 575h127v125h-127v-125zM408 575h127v125h-127v-125zM417 494v-448l-235 48v400h-107v-467l338 -86v-11l-100 -98h-144v-99h185l170 177v584h-107z" />
    <glyph glyph-name="imacron" unicode="&#x12b;" 
d="M107 563v-97h108l33 -48v-321h-182v-97h468v97h-182v338l-86 128h-159zM444 680h-288v99h288v-99z" />
    <glyph glyph-name="iogonek" unicode="&#x12f;" 
d="M107 563v-97h108l33 -48v-321h-182v-97h468v97h-182v338l-86 128h-159zM237 681v126h126v-126h-126zM353 -121h-100l100 131l-100 10l-86 -101v-51l80 -67h106v78z" />
    <glyph glyph-name="j" unicode="j" 
d="M227 557h239v-491l-169 -176h-144v97h103l105 110v362h-134v98zM290 687v126h126v-126h-126z" />
    <glyph glyph-name="uni0237" unicode="&#x237;" 
d="M227 557h239v-491l-169 -176h-144v97h103l105 110v362h-134v98z" />
    <glyph glyph-name="k" unicode="k" 
d="M66 748v-748h107v237l92 95l163 -238v-94h107v111l-199 295l168 170h-139l-192 -199v371h-107z" />
    <glyph glyph-name="uni0137" unicode="&#x137;" 
d="M66 748v-748h107v237l92 95l163 -238v-94h107v111l-199 295l168 170h-139l-192 -199v371h-107zM250 -311l144 194l-92 49l-117 -204z" />
    <glyph glyph-name="l" unicode="l" 
d="M78 748v-99h133v-521l87 -128h223v99h-171l-32 47v549l-91 53h-149z" />
    <glyph glyph-name="lacute" unicode="&#x13a;" 
d="M78 748v-99h133v-521l87 -128h223v99h-171l-32 47v549l-91 53h-149zM177 821l219 105l-60 85l-198 -129z" />
    <glyph glyph-name="lcaron" unicode="&#x13e;" 
d="M78 748v-99h133v-521l87 -128h223v99h-171l-32 47v549l-91 53h-149zM450 734l129 -17l-78 -232l-88 16z" />
    <glyph glyph-name="uni013C" unicode="&#x13c;" 
d="M78 748v-99h133v-521l87 -128h223v99h-171l-32 47v549l-91 53h-149zM312 -334l144 194l-92 49l-117 -204z" />
    <glyph glyph-name="lslash" unicode="&#x142;" 
d="M78 748v-99h133v-521l87 -128h223v99h-171l-32 47v549l-91 53h-149zM475 647l-432 -624l80 -55l433 624z" />
    <glyph glyph-name="m" unicode="m" 
d="M46 544v-544h107v421l22 25h41l32 -48v-121h107v144l22 25h39l32 -48v-398h107v416l-87 128h-50l-106 -64l-44 64h-52l-63 -38v38h-107z" />
    <glyph glyph-name="n" unicode="n" 
d="M66 544v-544h107v421l22 25h201l32 -48v-398h107v416l-87 128h-211l-64 -38v38h-107z" />
    <glyph glyph-name="nacute" unicode="&#x144;" 
d="M66 544v-544h107v421l22 25h201l32 -48v-398h107v416l-87 128h-211l-64 -38v38h-107zM251 611l219 105l-60 85l-198 -129z" />
    <glyph glyph-name="ncaron" unicode="&#x148;" 
d="M66 544v-544h107v421l22 25h201l32 -48v-398h107v416l-87 128h-211l-64 -38v38h-107zM370 612l149 114l-52 58l-124 -78l-123 78l-53 -58l149 -114h54z" />
    <glyph glyph-name="uni0146" unicode="&#x146;" 
d="M66 544v-544h107v421l22 25h201l32 -48v-398h107v416l-87 128h-211l-64 -38v38h-107zM250 -311l144 194l-92 49l-117 -204z" />
    <glyph glyph-name="ntilde" unicode="&#xf1;" 
d="M66 544v-544h107v421l22 25h201l32 -48v-398h107v416l-87 128h-211l-64 -38v38h-107zM513 753l-83 -50l-184 49l-116 -69l43 -72l86 54l181 -52l116 69z" />
    <glyph glyph-name="o" unicode="o" 
d="M155 544h295l86 -129v-324l-88 -91h-294l-87 129v324zM173 147l33 -48h200l22 24v275l-32 48h-200l-23 -25v-274z" />
    <glyph glyph-name="oacute" unicode="&#xf3;" 
d="M155 544h295l86 -129v-324l-88 -91h-294l-87 129v324zM173 147l33 -48h200l22 24v275l-32 48h-200l-23 -25v-274zM210 612l219 105l-60 85l-198 -129z" />
    <glyph glyph-name="ocircumflex" unicode="&#xf4;" 
d="M155 544h295l86 -129v-324l-88 -91h-294l-87 129v324zM173 147l33 -48h200l22 24v275l-32 48h-200l-23 -25v-274zM329 782h-54l-149 -113l53 -59l123 78l124 -78l52 59z" />
    <glyph glyph-name="odieresis" unicode="&#xf6;" 
d="M155 544h295l86 -129v-324l-88 -91h-294l-87 129v324zM173 147l33 -48h200l22 24v275l-32 48h-200l-23 -25v-274zM142 613v110h110v-110h-110zM352 613v110h110v-110h-110z" />
    <glyph glyph-name="ograve" unicode="&#xf2;" 
d="M155 544h295l86 -129v-324l-88 -91h-294l-87 129v324zM173 147l33 -48h200l22 24v275l-32 48h-200l-23 -25v-274zM394 607l39 61l-198 129l-60 -85z" />
    <glyph glyph-name="ohungarumlaut" unicode="&#x151;" 
d="M155 544h295l86 -129v-324l-88 -91h-294l-87 129v324zM173 147l33 -48h200l22 24v275l-32 48h-200l-23 -25v-274zM225 610l147 193l-93 50l-118 -204zM388 610l168 174l-86 61l-140 -190z" />
    <glyph glyph-name="oslash" unicode="&#xf8;" 
d="M155 544h295l86 -129v-324l-88 -91h-294l-87 129v324zM173 147l33 -48h200l22 24v275l-32 48h-200l-23 -25v-274zM416 794l93 -31l-298 -876l-92 31z" />
    <glyph glyph-name="otilde" unicode="&#xf5;" 
d="M155 544h295l86 -129v-324l-88 -91h-294l-87 129v324zM173 147l33 -48h200l22 24v275l-32 48h-200l-23 -25v-274zM472 753l-83 -50l-184 49l-116 -69l43 -72l86 54l181 -52l116 69z" />
    <glyph glyph-name="oe" unicode="&#x153;" 
d="M86 545l-88 -91v-324l87 -130h181l41 42l27 -42h176l81 85l-57 83l-66 -69h-81l-33 48v82h72l176 182l-91 134h-175l-41 -42l-27 42h-182zM105 147v274l23 25h87l33 -48v-275l-23 -24h-87zM354 422l24 24h80l17 -24l-90 -94h-31v94z" />
    <glyph glyph-name="p" unicode="p" 
d="M235 544l-62 -38v38h-107v-760h107v253l64 -37h209l88 91v324l-85 129h-214zM173 147v275l23 23h199l32 -49v-274l-22 -23h-199z" />
    <glyph glyph-name="thorn" unicode="&#xfe;" 
d="M66 763v-967h106v242l66 -38h207l89 93v322l-87 130h-212l-63 -38v256h-106zM172 422l24 24h199l33 -49v-273l-23 -24h-233v322z" />
    <glyph glyph-name="q" unicode="q" 
d="M154 544l-88 -91v-324l86 -129h211l64 37v-253h107v759h-107v-37l-65 38h-208zM173 148v274l23 23h197l34 -48v-275l-24 -23h-197z" />
    <glyph glyph-name="r" unicode="r" 
d="M58 544v-98h69l32 -48v-299h-101v-99h349v99h-141v308l36 39h125l33 -51l82 56l-63 93h-220l-51 -53l-89 53h-61z" />
    <glyph glyph-name="racute" unicode="&#x155;" 
d="M58 544v-98h69l32 -48v-299h-101v-99h349v99h-141v308l36 39h125l33 -51l82 56l-63 93h-220l-51 -53l-89 53h-61zM277 611l219 105l-60 85l-198 -129z" />
    <glyph glyph-name="rcaron" unicode="&#x159;" 
d="M58 544v-98h69l32 -48v-299h-101v-99h349v99h-141v308l36 39h125l33 -51l82 56l-63 93h-220l-51 -53l-89 53h-61zM396 612l149 114l-52 58l-124 -78l-123 78l-53 -58l149 -114h54z" />
    <glyph glyph-name="s" unicode="s" 
d="M162 549h287l63 -92l-69 -71l-45 66h-191l-22 -19v-56l31 -46h235l75 -111v-136l-76 -84h-326l-50 77l69 70l32 -48h230l13 16v85l-22 32h-235l-83 125v110z" />
    <glyph glyph-name="sacute" unicode="&#x15b;" 
d="M162 549h287l63 -92l-69 -71l-45 66h-191l-22 -19v-56l31 -46h235l75 -111v-136l-76 -84h-326l-50 77l69 70l32 -48h230l13 16v85l-22 32h-235l-83 125v110zM211 611l219 105l-60 85l-198 -129z" />
    <glyph glyph-name="scaron" unicode="&#x161;" 
d="M162 549h287l63 -92l-69 -71l-45 66h-191l-22 -19v-56l31 -46h235l75 -111v-136l-76 -84h-326l-50 77l69 70l32 -48h230l13 16v85l-22 32h-235l-83 125v110zM330 612l149 114l-52 58l-124 -78l-123 78l-53 -58l149 -114h54z" />
    <glyph glyph-name="scedilla" unicode="&#x15f;" 
d="M162 549h287l63 -92l-69 -71l-45 66h-191l-22 -19v-56l31 -46h235l75 -111v-136l-76 -84h-326l-50 77l69 70l32 -48h230l13 16v85l-22 32h-235l-83 125v110zM223 -128h100l-100 131h108l78 -91v-51l-80 -67h-106v78z" />
    <glyph glyph-name="uni0219" unicode="&#x219;" 
d="M162 549h287l63 -92l-69 -71l-45 66h-191l-22 -19v-56l31 -46h235l75 -111v-136l-76 -84h-326l-50 77l69 70l32 -48h230l13 16v85l-22 32h-235l-83 125v110zM250 -311l144 194l-92 49l-117 -204z" />
    <glyph glyph-name="germandbls" unicode="&#xdf;" 
d="M238 737l-173 -184v-553h107v520l89 96l94 -58l-139 -121v-100h151l60 -89v-120l-26 -29h-116v-99h157l92 96v169l-115 172h-65l95 71v103z" />
    <glyph glyph-name="t" unicode="t" 
d="M164 748h107v-203h162v-99h-162v-299l32 -47h89l68 67l56 -82l-79 -85h-187l-86 127v319h-80v99h80v203z" />
    <glyph glyph-name="tcaron" unicode="&#x165;" 
d="M164 748h107v-203h162v-99h-162v-299l32 -47h89l68 67l56 -82l-79 -85h-187l-86 127v319h-80v99h80v203zM414 888l129 -17l-78 -232l-88 16z" />
    <glyph glyph-name="uni021B" unicode="&#x21b;" 
d="M164 748h107v-203h162v-99h-162v-299l32 -47h89l68 67l56 -82l-79 -85h-187l-86 127v319h-80v99h80v203zM294 -311l144 194l-92 49l-117 -204z" />
    <glyph glyph-name="u" unicode="u" 
d="M427 544v-421l-22 -23h-200l-32 47v397h-107v-415l87 -129h211l65 38v-38h105v544h-107z" />
    <glyph glyph-name="uacute" unicode="&#xfa;" 
d="M427 544v-421l-22 -23h-200l-32 47v397h-107v-415l87 -129h211l65 38v-38h105v544h-107zM208 612l219 105l-60 85l-198 -129z" />
    <glyph glyph-name="ucircumflex" unicode="&#xfb;" 
d="M427 544v-421l-22 -23h-200l-32 47v397h-107v-415l87 -129h211l65 38v-38h105v544h-107zM327 782h-54l-149 -113l53 -59l123 78l124 -78l52 59z" />
    <glyph glyph-name="udieresis" unicode="&#xfc;" 
d="M427 544v-421l-22 -23h-200l-32 47v397h-107v-415l87 -129h211l65 38v-38h105v544h-107zM140 613v110h110v-110h-110zM350 613v110h110v-110h-110z" />
    <glyph glyph-name="ugrave" unicode="&#xf9;" 
d="M427 544v-421l-22 -23h-200l-32 47v397h-107v-415l87 -129h211l65 38v-38h105v544h-107zM392 607l39 61l-198 129l-60 -85z" />
    <glyph glyph-name="uhungarumlaut" unicode="&#x171;" 
d="M427 544v-421l-22 -23h-200l-32 47v397h-107v-415l87 -129h211l65 38v-38h105v544h-107zM223 610l147 193l-93 50l-118 -204zM386 610l168 174l-86 61l-140 -190z" />
    <glyph glyph-name="umacron" unicode="&#x16b;" 
d="M427 544v-421l-22 -23h-200l-32 47v397h-107v-415l87 -129h211l65 38v-38h105v544h-107zM444 614h-288v99h288v-99z" />
    <glyph glyph-name="uogonek" unicode="&#x173;" 
d="M427 544v-421l-22 -23h-200l-32 47v397h-107v-415l87 -129h211l65 38v-38h105v544h-107zM534 -131h-100l100 131l-100 10l-86 -101v-51l80 -67h106v78z" />
    <glyph glyph-name="uring" unicode="&#x16f;" 
d="M427 544v-421l-22 -23h-200l-32 47v397h-107v-415l87 -129h211l65 38v-38h105v544h-107zM251 840l-65 -66v-95l65 -65h95l68 64v96l-68 66h-95zM280 775h39l29 -29v-40l-29 -27h-39l-28 27v40z" />
    <glyph glyph-name="v" unicode="v" 
d="M428 545v-280l-153 -159l-102 152v287h-107v-306l161 -239h82l226 234v311h-107z" />
    <glyph glyph-name="w" unicode="w" 
d="M475 544v-344l-76 -80h-3l-44 64v360h-107v-385l-40 -43h-4l-75 105v323h-107v-341l138 -203h83l68 70l41 -70h86l147 152v392h-107z" />
    <glyph glyph-name="wacute" unicode="&#x1e83;" 
d="M475 544v-344l-76 -80h-3l-44 64v360h-107v-385l-40 -43h-4l-75 105v323h-107v-341l138 -203h83l68 70l41 -70h86l147 152v392h-107zM208 612l219 105l-60 85l-198 -129z" />
    <glyph glyph-name="wcircumflex" unicode="&#x175;" 
d="M475 544v-344l-76 -80h-3l-44 64v360h-107v-385l-40 -43h-4l-75 105v323h-107v-341l138 -203h83l68 70l41 -70h86l147 152v392h-107zM327 782h-54l-149 -113l53 -59l123 78l124 -78l52 59z" />
    <glyph glyph-name="wdieresis" unicode="&#x1e85;" 
d="M475 544v-344l-76 -80h-3l-44 64v360h-107v-385l-40 -43h-4l-75 105v323h-107v-341l138 -203h83l68 70l41 -70h86l147 152v392h-107zM140 613v110h110v-110h-110zM350 613v110h110v-110h-110z" />
    <glyph glyph-name="wgrave" unicode="&#x1e81;" 
d="M475 544v-344l-76 -80h-3l-44 64v360h-107v-385l-40 -43h-4l-75 105v323h-107v-341l138 -203h83l68 70l41 -70h86l147 152v392h-107zM392 607l39 61l-198 129l-60 -85z" />
    <glyph glyph-name="x" unicode="x" 
d="M428 544v-96l-111 -114h-93l-52 77v133h-107v-151l93 -143v-2l-93 -97v-151h107v121l109 113h95l52 -76v-158h107v176l-96 141l96 98v129h-107z" />
    <glyph glyph-name="y" unicode="y" 
d="M427 545v-446h-202l-52 76v370h-107v-388l106 -157h255v-9l-107 -108h-254v-100h298l170 177v585h-107z" />
    <glyph glyph-name="yacute" unicode="&#xfd;" 
d="M427 545v-446h-202l-52 76v370h-107v-388l106 -157h255v-9l-107 -108h-254v-100h298l170 177v585h-107zM208 603l219 105l-60 85l-198 -129z" />
    <glyph glyph-name="ycircumflex" unicode="&#x177;" 
d="M427 545v-446h-202l-52 76v370h-107v-388l106 -157h255v-9l-107 -108h-254v-100h298l170 177v585h-107zM327 773h-54l-149 -113l53 -59l123 78l124 -78l52 59z" />
    <glyph glyph-name="ydieresis" unicode="&#xff;" 
d="M427 545v-446h-202l-52 76v370h-107v-388l106 -157h255v-9l-107 -108h-254v-100h298l170 177v585h-107zM140 604v110h110v-110h-110zM350 604v110h110v-110h-110z" />
    <glyph glyph-name="ygrave" unicode="&#x1ef3;" 
d="M427 545v-446h-202l-52 76v370h-107v-388l106 -157h255v-9l-107 -108h-254v-100h298l170 177v585h-107zM392 598l39 61l-198 129l-60 -85z" />
    <glyph glyph-name="z" unicode="z" 
d="M72 544v-98h335v-7l-335 -348v-91h456v99h-330l330 343v102h-456z" />
    <glyph glyph-name="zacute" unicode="&#x17a;" 
d="M72 544v-98h335v-7l-335 -348v-91h456v99h-330l330 343v102h-456zM208 603l219 105l-60 85l-198 -129z" />
    <glyph glyph-name="zcaron" unicode="&#x17e;" 
d="M72 544v-98h335v-7l-335 -348v-91h456v99h-330l330 343v102h-456zM327 604l149 114l-52 58l-124 -78l-123 78l-53 -58l149 -114h54z" />
    <glyph glyph-name="zdotaccent" unicode="&#x17c;" 
d="M72 544v-98h335v-7l-335 -348v-91h456v99h-330l330 343v102h-456zM237 605v126h126v-126h-126z" />
    <glyph glyph-name="ordfeminine" unicode="&#xaa;" 
d="M143 553v-99h286v-108h-208l-159 -166v-49l88 -131h215l64 39v-39h109v453l-68 100h-327zM173 149v4l89 91h165v-143h-228z" />
    <glyph glyph-name="ordmasculine" unicode="&#xba;" 
d="M155 544h295l86 -129v-324l-88 -91h-294l-87 129v324zM173 147l33 -48h200l22 24v275l-32 48h-200l-23 -25v-274z" />
    <glyph glyph-name="uni0394" unicode="&#x394;" 
d="M363 700h-126l-198 -700h526zM308 565l134 -467h-281l132 467h15z" />
    <glyph glyph-name="uni03BC" unicode="&#x3bc;" 
d="M522 534l-1 -427l35 -107h-90l-18 36l-35 -36h-189l-64 37v-253h-107v750h108l-1 -387l32 -48h200l22 23v412h108z" />
    <glyph glyph-name="pi" unicode="&#x3c0;" 
d="M578 548h-556v-100h84v-448h98v448h193v-296l67 -152h102l-70 153v295h82v100z" />
    <glyph glyph-name="zero" unicode="0" 
d="M155 713l-89 -91v-493l87 -129h294l87 92v493l-85 128h-294zM173 590l22 24h199l33 -48v-22l-254 -263v309zM173 146v6l254 264v-292l-23 -25h-199z" />
    <glyph glyph-name="one" unicode="1" 
d="M255 713l-180 -184l58 -85l114 118v-463h-181v-99h468v99h-179v614h-100z" />
    <glyph glyph-name="two" unicode="2" 
d="M157 713l-93 -95l56 -82l78 78h193l54 -81l-378 -388v-145h470v99h-363v14l363 375v101l-83 124h-297z" />
    <glyph glyph-name="three" unicode="3" 
d="M65 713v-99h337l-185 -191v-86h149l63 -89v-120l-29 -29h-335v-99h379l91 96v169l-106 158h-75l181 188v102h-470z" />
    <glyph glyph-name="four" unicode="4" 
d="M359 713l-325 -336l102 -149h263v-228h107v228h60v99h-60v386h-147zM160 366l239 246v-285h-213z" />
    <glyph glyph-name="five" unicode="5" 
d="M65 713v-234l55 -82h246l62 -89v-180l-29 -29h-334v-99h379l91 95v230l-117 171h-241l-5 10v108h343v99h-450z" />
    <glyph glyph-name="six" unicode="6" 
d="M154 714l-88 -92v-491l80 -131h266l122 126v224l-49 73h-260l-52 -53v221l22 24h258v99h-299zM173 148v82l93 94h161v-166l-56 -59h-164z" />
    <glyph glyph-name="seven" unicode="7" 
d="M66 713v-99h361v-18l-282 -288v-308h107v277l282 288v148h-468z" />
    <glyph glyph-name="eight" unicode="8" 
d="M223 713l-157 -164v-89l80 -118h7l-87 -87v-126l87 -129h260l121 128v113l-86 127l86 90v139l-77 116h-234zM173 478v42l92 94h138l24 -35v-91l-59 -58h-163zM173 147v76l102 107h79l73 -107v-65l-59 -59h-163z" />
    <glyph glyph-name="nine" unicode="9" 
d="M123 713l-57 -59v-163l112 -167h249v-137l-76 -88h-245v-99h290l138 156v388l-113 169h-298zM173 510v104h194l60 -89v-102h-197z" />
    <glyph glyph-name="zero.dnom" 
d="M226 360l-47 -47v-246l46 -67h150l45 48v246l-44 66h-150zM240 294l9 10h96l15 -22v-7l-120 -124v143zM240 77v3l120 125v-138l-10 -10h-96z" />
    <glyph glyph-name="one.dnom" 
d="M276 360l-93 -95l33 -48l54 56v-216h-91v-57h241v57h-89v303h-55z" />
    <glyph glyph-name="two.dnom" 
d="M228 360l-50 -50l32 -47l41 41h91l24 -37l-185 -190v-77h241v57h-181v2l181 187v50l-43 64h-151z" />
    <glyph glyph-name="three.dnom" 
d="M179 360v-56h164l-88 -91v-44h77l29 -43v-57l-12 -12h-170v-57h195l47 50v87l-52 78h-34l86 89v56h-242z" />
    <glyph glyph-name="four.dnom" 
d="M329 360l-166 -171l54 -78h130v-111h60v111h30v56h-30v193h-78zM235 183l112 115v-131h-102z" />
    <glyph glyph-name="five.dnom" 
d="M179 360v-121l30 -44h122l30 -42v-84l-13 -13h-169v-56h195l47 50v114l-60 88h-119l-2 5v47h171v56h-232z" />
    <glyph glyph-name="six.dnom" 
d="M225 361l-46 -48v-245l40 -68h138l63 65v111l-26 39h-133l-21 -21v100l9 10h131v57h-155zM240 79v35l44 45h76v-75l-26 -27h-79z" />
    <glyph glyph-name="seven.dnom" 
d="M179 360v-56h181v-4l-141 -144v-156h60v137l141 144v79h-241z" />
    <glyph glyph-name="eight.dnom" 
d="M260 360l-81 -84v-45l40 -59h3l-43 -41v-64l46 -67h133l62 66v57l-42 63l42 44v70l-40 60h-120zM240 242v17l44 45h65l11 -15v-42l-28 -27h-78zM240 78v34l49 52h36l35 -52v-28l-28 -27h-78z" />
    <glyph glyph-name="nine.dnom" 
d="M210 360l-31 -31v-84l58 -86h123v-61l-36 -41h-125v-57h150l71 80v193l-58 87h-152zM240 256v48h91l29 -42v-47h-93z" />
    <glyph glyph-name="zero.numr" 
d="M226 720l-47 -47v-246l46 -67h150l45 48v246l-44 66h-150zM240 654l9 10h96l15 -22v-7l-120 -124v143zM240 437v3l120 125v-138l-10 -10h-96z" />
    <glyph glyph-name="one.numr" 
d="M276 720l-93 -95l33 -48l54 56v-216h-91v-57h241v57h-89v303h-55z" />
    <glyph glyph-name="two.numr" 
d="M228 720l-50 -50l32 -47l41 41h91l24 -37l-185 -190v-77h241v57h-181v2l181 187v50l-43 64h-151z" />
    <glyph glyph-name="three.numr" 
d="M179 720v-56h164l-88 -91v-44h77l29 -43v-57l-12 -12h-170v-57h195l47 50v87l-52 78h-34l86 89v56h-242z" />
    <glyph glyph-name="four.numr" 
d="M329 720l-166 -171l54 -78h130v-111h60v111h30v56h-30v193h-78zM235 543l112 115v-131h-102z" />
    <glyph glyph-name="five.numr" 
d="M179 720v-121l30 -44h122l30 -42v-84l-13 -13h-169v-56h195l47 50v114l-60 88h-119l-2 5v47h171v56h-232z" />
    <glyph glyph-name="six.numr" 
d="M225 722l-46 -48v-245l40 -68h138l63 65v111l-26 39h-133l-21 -21v100l9 10h131v57h-155zM240 440v35l44 45h76v-75l-26 -27h-79z" />
    <glyph glyph-name="seven.numr" 
d="M179 720v-56h181v-4l-141 -144v-156h60v137l141 144v79h-241z" />
    <glyph glyph-name="eight.numr" 
d="M260 720l-81 -84v-45l40 -59h3l-43 -41v-64l46 -67h133l62 66v57l-42 63l42 44v70l-40 60h-120zM240 602v17l44 45h65l11 -15v-42l-28 -27h-78zM240 438v34l49 52h36l35 -52v-28l-28 -27h-78z" />
    <glyph glyph-name="nine.numr" 
d="M210 720l-31 -31v-84l58 -86h123v-61l-36 -41h-125v-57h150l71 80v193l-58 87h-152zM240 616v48h91l29 -42v-47h-93z" />
    <glyph glyph-name="fraction" unicode="&#x2044;" 
d="M46 155l537 257l-25 43l-538 -257z" />
    <glyph glyph-name="uni215F" unicode="&#x215f;" 
d="M46 155l537 257l-25 43l-538 -257zM156 780l-93 -95l33 -48l54 56v-216h-91v-57h241v57h-89v303h-55z" />
    <glyph glyph-name="onehalf" unicode="&#xbd;" 
d="M46 155l537 257l-25 43l-538 -257zM156 780l-93 -95l33 -48l54 56v-216h-91v-57h241v57h-89v303h-55zM308 200l-50 -50l32 -47l41 41h91l24 -37l-185 -190v-77h241v57h-181v2l181 187v50l-43 64h-151z" />
    <glyph glyph-name="uni2153" unicode="&#x2153;" 
d="M46 155l537 257l-25 43l-538 -257zM156 780l-93 -95l33 -48l54 56v-216h-91v-57h241v57h-89v303h-55zM259 200v-56h164l-88 -91v-44h77l29 -43v-57l-12 -12h-170v-57h195l47 50v87l-52 78h-34l86 89v56h-242z" />
    <glyph glyph-name="uni2154" unicode="&#x2154;" 
d="M46 155l537 257l-25 43l-538 -257zM59 779v-56h164l-88 -91v-44h77l29 -43v-57l-12 -12h-170v-57h195l47 50v87l-52 78h-34l86 89v56h-242zM409 200l-166 -171l54 -78h130v-111h60v111h30v56h-30v193h-78zM315 23l112 115v-131h-102z" />
    <glyph glyph-name="onequarter" unicode="&#xbc;" 
d="M46 155l537 257l-25 43l-538 -257zM156 780l-93 -95l33 -48l54 56v-216h-91v-57h241v57h-89v303h-55zM409 200l-166 -171l54 -78h130v-111h60v111h30v56h-30v193h-78zM315 23l112 115v-131h-102z" />
    <glyph glyph-name="threequarters" unicode="&#xbe;" 
d="M46 155l537 257l-25 43l-538 -257zM59 779v-56h164l-88 -91v-44h77l29 -43v-57l-12 -12h-170v-57h195l47 50v87l-52 78h-34l86 89v56h-242zM409 200l-166 -171l54 -78h130v-111h60v111h30v56h-30v193h-78zM315 23l112 115v-131h-102z" />
    <glyph glyph-name="oneeighth" unicode="&#x215b;" 
d="M46 155l537 257l-25 43l-538 -257zM156 780l-93 -95l33 -48l54 56v-216h-91v-57h241v57h-89v303h-55zM340 196l-81 -84v-45l40 -59h3l-43 -41v-64l46 -67h133l62 66v57l-42 63l42 44v70l-40 60h-120zM320 78v17l44 45h65l11 -15v-42l-28 -27h-78zM320 -86v34l49 52h36
l35 -52v-28l-28 -27h-78z" />
    <glyph glyph-name="threeeighths" unicode="&#x215c;" 
d="M46 155l537 257l-25 43l-538 -257zM59 779v-56h164l-88 -91v-44h77l29 -43v-57l-12 -12h-170v-57h195l47 50v87l-52 78h-34l86 89v56h-242zM409 200l-166 -171l54 -78h130v-111h60v111h30v56h-30v193h-78zM315 23l112 115v-131h-102z" />
    <glyph glyph-name="fiveeighths" unicode="&#x215d;" 
d="M46 155l537 257l-25 43l-538 -257zM59 780v-121l30 -44h122l30 -42v-84l-13 -13h-169v-56h195l47 50v114l-60 88h-119l-2 5v47h171v56h-232zM340 196l-81 -84v-45l40 -59h3l-43 -41v-64l46 -67h133l62 66v57l-42 63l42 44v70l-40 60h-120zM320 78v17l44 45h65l11 -15v-42
l-28 -27h-78zM320 -86v34l49 52h36l35 -52v-28l-28 -27h-78z" />
    <glyph glyph-name="seveneighths" unicode="&#x215e;" 
d="M46 155l537 257l-25 43l-538 -257zM59 780v-56h181v-4l-141 -144v-156h60v137l141 144v79h-241zM340 196l-81 -84v-45l40 -59h3l-43 -41v-64l46 -67h133l62 66v57l-42 63l42 44v70l-40 60h-120zM320 78v17l44 45h65l11 -15v-42l-28 -27h-78zM320 -86v34l49 52h36l35 -52
v-28l-28 -27h-78z" />
    <glyph glyph-name="uni2080" unicode="&#x2080;" 
d="M226 360l-47 -47v-246l46 -67h150l45 48v246l-44 66h-150zM240 294l9 10h96l15 -22v-7l-120 -124v143zM240 77v3l120 125v-138l-10 -10h-96z" />
    <glyph glyph-name="uni2081" unicode="&#x2081;" 
d="M276 360l-93 -95l33 -48l54 56v-216h-91v-57h241v57h-89v303h-55z" />
    <glyph glyph-name="uni2082" unicode="&#x2082;" 
d="M228 360l-50 -50l32 -47l41 41h91l24 -37l-185 -190v-77h241v57h-181v2l181 187v50l-43 64h-151z" />
    <glyph glyph-name="uni2083" unicode="&#x2083;" 
d="M179 360v-56h164l-88 -91v-44h77l29 -43v-57l-12 -12h-170v-57h195l47 50v87l-52 78h-34l86 89v56h-242z" />
    <glyph glyph-name="uni2084" unicode="&#x2084;" 
d="M329 360l-166 -171l54 -78h130v-111h60v111h30v56h-30v193h-78zM235 183l112 115v-131h-102z" />
    <glyph glyph-name="uni2085" unicode="&#x2085;" 
d="M179 360v-121l30 -44h122l30 -42v-84l-13 -13h-169v-56h195l47 50v114l-60 88h-119l-2 5v47h171v56h-232z" />
    <glyph glyph-name="uni2086" unicode="&#x2086;" 
d="M225 361l-46 -48v-245l40 -68h138l63 65v111l-26 39h-133l-21 -21v100l9 10h131v57h-155zM240 79v35l44 45h76v-75l-26 -27h-79z" />
    <glyph glyph-name="uni2087" unicode="&#x2087;" 
d="M179 360v-56h181v-4l-141 -144v-156h60v137l141 144v79h-241z" />
    <glyph glyph-name="uni2088" unicode="&#x2088;" 
d="M260 360l-81 -84v-45l40 -59h3l-43 -41v-64l46 -67h133l62 66v57l-42 63l42 44v70l-40 60h-120zM240 242v17l44 45h65l11 -15v-42l-28 -27h-78zM240 78v34l49 52h36l35 -52v-28l-28 -27h-78z" />
    <glyph glyph-name="uni2089" unicode="&#x2089;" 
d="M210 360l-31 -31v-84l58 -86h123v-61l-36 -41h-125v-57h150l71 80v193l-58 87h-152zM240 256v48h91l29 -42v-47h-93z" />
    <glyph glyph-name="uni2070" unicode="&#x2070;" 
d="M226 720l-47 -47v-246l46 -67h150l45 48v246l-44 66h-150zM240 654l9 10h96l15 -22v-7l-120 -124v143zM240 437v3l120 125v-138l-10 -10h-96z" />
    <glyph glyph-name="uni00B9" unicode="&#xb9;" 
d="M276 720l-93 -95l33 -48l54 56v-216h-91v-57h241v57h-89v303h-55z" />
    <glyph glyph-name="uni00B2" unicode="&#xb2;" 
d="M228 720l-50 -50l32 -47l41 41h91l24 -37l-185 -190v-77h241v57h-181v2l181 187v50l-43 64h-151z" />
    <glyph glyph-name="uni00B3" unicode="&#xb3;" 
d="M179 720v-56h164l-88 -91v-44h77l29 -43v-57l-12 -12h-170v-57h195l47 50v87l-52 78h-34l86 89v56h-242z" />
    <glyph glyph-name="uni2074" unicode="&#x2074;" 
d="M329 720l-166 -171l54 -78h130v-111h60v111h30v56h-30v193h-78zM235 543l112 115v-131h-102z" />
    <glyph glyph-name="uni2075" unicode="&#x2075;" 
d="M179 720v-121l30 -44h122l30 -42v-84l-13 -13h-169v-56h195l47 50v114l-60 88h-119l-2 5v47h171v56h-232z" />
    <glyph glyph-name="uni2076" unicode="&#x2076;" 
d="M225 722l-46 -48v-245l40 -68h138l63 65v111l-26 39h-133l-21 -21v100l9 10h131v57h-155zM240 440v35l44 45h76v-75l-26 -27h-79z" />
    <glyph glyph-name="uni2077" unicode="&#x2077;" 
d="M179 720v-56h181v-4l-141 -144v-156h60v137l141 144v79h-241z" />
    <glyph glyph-name="uni2078" unicode="&#x2078;" 
d="M260 720l-81 -84v-45l40 -59h3l-43 -41v-64l46 -67h133l62 66v57l-42 63l42 44v70l-40 60h-120zM240 602v17l44 45h65l11 -15v-42l-28 -27h-78zM240 438v34l49 52h36l35 -52v-28l-28 -27h-78z" />
    <glyph glyph-name="uni2079" unicode="&#x2079;" 
d="M210 720l-31 -31v-84l58 -86h123v-61l-36 -41h-125v-57h150l71 80v193l-58 87h-152zM240 616v48h91l29 -42v-47h-93z" />
    <glyph glyph-name="zerowidthnobreakspace" unicode="&#xfeff;" horiz-adv-x="0" 
 />
    <glyph glyph-name="CR" unicode="&#xd;" 
 />
    <glyph glyph-name="space" unicode=" " 
 />
    <glyph glyph-name="uni00A0" unicode="&#xa0;" 
 />
    <glyph glyph-name="hyphen_greater.liga" 
d="M279 251h-648v98h648v-98zM66 619l302 -292v-54l-304 -294l-67 72l256 249l-256 246z" />
    <glyph glyph-name="period_period.liga" 
d="M-283 0v177h178v-177h-178zM105 0v177h178v-177h-178z" />
    <glyph glyph-name="period_period_period.liga" 
d="M-779 0v177h178v-177h-178zM1 0v177h178v-177h-178zM-390 0v177h178v-177h-178z" />
    <glyph glyph-name="colon_colon.liga" 
d="M-277 559h168v-168h-168v168zM-277 190h168v-168h-168v168zM107 559h168v-168h-168v168zM107 190h168v-168h-168v168z" />
    <glyph glyph-name="colon_colon_colon.liga" 
d="M0 559h168v-168h-168v168zM0 190h168v-168h-168v168zM-767 559h168v-168h-168v168zM-767 190h168v-168h-168v168zM-385 559h168v-168h-168v168zM-385 190h168v-168h-168v168z" />
    <glyph glyph-name="exclam_equal.liga" 
d="M-344 439h688v-105h-688v105zM-344 231h688v-105h-688v105zM156 782l89 -40l-401 -925l-90 40z" />
    <glyph glyph-name="exclam_equal_equal.liga" 
d="M-938 357h1276v-99h-1276v99zM-938 159h1276v-99h-1276v99zM-938 555h1276v-99h-1276v99zM-184 794l93 -31l-325 -957l-93 31z" />
    <glyph glyph-name="question_period.liga" 
d="M-302 707l-131 -136l54 -85l119 122h197l61 -89l-208 -215v-117h108v87l225 234l-132 199h-293zM-220 -28h130v119h-130v-119zM142 0v177h178v-177h-178z" />
    <glyph glyph-name="asterisk_asterisk.liga" 
d="M-308 540v-132l-126 40l-35 -101l127 -41l-78 -107l86 -63l78 107l78 -107l87 63l-77 107l125 41l-33 101l-126 -40v132h-106zM205 540v-132l-126 40l-35 -101l127 -41l-78 -107l86 -63l78 107l78 -107l87 63l-77 107l125 41l-33 101l-126 -40v132h-106z" />
    <glyph glyph-name="asterisk_slash.liga" 
d="M-238 540v-132l-126 40l-35 -101l127 -41l-78 -107l86 -63l78 107l78 -107l87 63l-77 107l125 41l-33 101l-126 -40v132h-106zM301 794l93 -31l-325 -957l-93 31z" />
    <glyph glyph-name="slash_asterisk.liga" 
d="M-75 794l93 -31l-325 -957l-93 31zM147 540v-132l-126 40l-35 -101l127 -41l-78 -107l86 -63l78 107l78 -107l87 63l-77 107l125 41l-33 101l-126 -40v132h-106z" />
    <glyph glyph-name="slash_equal.liga" 
d="M-392 450h392v-99h-392v99zM-459 242h459v-99h-459v99zM-307 794l92 -31l-325 -957l-92 31zM0 450h425v-99h-425v99zM0 242h425v-99h-425v99z" />
    <glyph glyph-name="slash_slash.liga" 
d="M-72 824l93 -31l-325 -957l-93 31zM304 794l93 -31l-325 -957l-93 31z" />
    <glyph glyph-name="backslash_backslash.liga" 
d="M72 823l325 -956l-92 -31l-325 956zM-304 794l324 -957l-92 -31l-325 957z" />
    <glyph glyph-name="period" unicode="." 
d="M211 0v177h178v-177h-178z" />
    <glyph glyph-name="comma" unicode="," 
d="M216 160v-160h61v-85l-52 -54l56 -85l103 103v281h-168z" />
    <glyph glyph-name="colon" unicode=":" 
d="M216 559h168v-168h-168v168zM216 190h168v-168h-168v168z" />
    <glyph glyph-name="semicolon" unicode=";" 
d="M216 391v168h168v-168h-168zM216 149v-156h56v-71l-49 -51l59 -87l102 100v265h-168z" />
    <glyph glyph-name="ellipsis" unicode="&#x2026;" 
d="M20 0v133h133v-133h-133zM233 0v133h134v-133h-134zM447 0v133h133v-133h-133z" />
    <glyph glyph-name="exclam" unicode="!" 
d="M365 81h-130v-119h130v119zM247 201h108v520h-108v-520z" />
    <glyph glyph-name="exclamdown" unicode="&#xa1;" 
d="M235 559h130v119h-130v-119zM353 439h-108v-520h108v520z" />
    <glyph glyph-name="question" unicode="?" 
d="M153 707l-131 -136l54 -85l119 122h197l61 -89l-208 -215v-117h108v87l225 234l-132 199h-293zM235 -28h130v119h-130v-119z" />
    <glyph glyph-name="questiondown" unicode="&#xbf;" 
d="M447 -28l131 136l-54 85l-119 -122h-197l-61 89l208 215v117h-108v-87l-225 -234l132 -199h293zM365 707h-130v-119h130v119z" />
    <glyph glyph-name="periodcentered" unicode="&#xb7;" 
d="M211 211v178h178v-178h-178z" />
    <glyph glyph-name="bullet" unicode="&#x2022;" 
d="M262 390l-52 -52v-76l52 -51h74l54 51v76l-54 52h-74z" />
    <glyph glyph-name="asterisk" unicode="*" 
d="M248 540v-132l-126 40l-35 -101l127 -41l-78 -107l86 -63l78 107l78 -107l87 63l-77 107l125 41l-33 101l-126 -40v132h-106z" />
    <glyph glyph-name="numbersign" unicode="#" 
d="M221 268l35 191h121l-34 -191h-122zM575 559h-79l32 168h-102l-29 -168h-123l32 168h-100l-31 -168h-97v-100h78l-35 -191h-96v-100h78l-32 -168h102l30 168h120l-30 -168h100l32 168h97v100h-79l36 191h96v100z" />
    <glyph glyph-name="uni203E" unicode="&#x203e;" 
d="M600 800h-600v99h600v-99z" />
    <glyph glyph-name="slash" unicode="/" 
d="M416 794l93 -31l-325 -957l-93 31z" />
    <glyph glyph-name="backslash" unicode="\" 
d="M184 794l325 -957l-93 -31l-325 957z" />
    <glyph glyph-name="hyphen" unicode="-" 
d="M484 251h-368v98h368v-98z" />
    <glyph glyph-name="endash" unicode="&#x2013;" 
d="M580 251h-560v98h560v-98z" />
    <glyph glyph-name="emdash" unicode="&#x2014;" 
d="M600 251h-600v98h600v-98z" />
    <glyph glyph-name="underscore" unicode="_" 
d="M560 -149h-520v99h520v-99z" />
    <glyph glyph-name="underscoredbl" unicode="&#x2017;" 
d="M560 -149h-520v99h520v-99zM560 -301h-520v99h520v-99z" />
    <glyph glyph-name="parenleft" unicode="(" 
d="M401 833l-278 -287v-492l278 -287l76 89l-233 241v406l233 241z" />
    <glyph glyph-name="parenright" unicode=")" 
d="M202 833l-80 -88l235 -242v-406l-235 -242l80 -88l276 287v492z" />
    <glyph glyph-name="braceleft" unicode="{" 
d="M325 796l-58 -61v-247l-182 -188l182 -188v-247l58 -61h190v100h-139v239l-153 157l153 157v239h139v100h-190z" />
    <glyph glyph-name="braceright" unicode="}" 
d="M85 796v-100h142v-239l150 -157l-150 -157v-239h-142v-100h190l58 61v247l182 188l-182 188v247l-58 61h-190z" />
    <glyph glyph-name="bracketleft" unicode="[" 
d="M147 796v-992h306v100h-200v792h200v100h-306z" />
    <glyph glyph-name="bracketright" unicode="]" 
d="M146 796v-102h201v-788h-201v-102h308v992h-308z" />
    <glyph glyph-name="quotesinglbase" unicode="&#x201a;" 
d="M216 160v-160h61v-85l-52 -54l56 -85l103 103v281h-168z" />
    <glyph glyph-name="quotedblbase" unicode="&#x201e;" 
d="M327 160v-160h61v-85l-52 -54l56 -85l103 103v281h-168zM105 160v-160h61v-85l-52 -54l56 -85l103 103v281h-168z" />
    <glyph glyph-name="quotedblleft" unicode="&#x201c;" 
d="M228 500v160h-61v85l52 53l-56 86l-103 -103v-281h168zM456 500v160h-61v85l52 53l-56 86l-103 -103v-281h168z" />
    <glyph glyph-name="quotedblright" unicode="&#x201d;" 
d="M372 784v-160h61v-85l-52 -54l56 -85l103 103v281h-168zM144 784v-160h61v-85l-52 -54l56 -85l103 103v281h-168z" />
    <glyph glyph-name="quoteleft" unicode="&#x2018;" 
d="M384 469v160h-61v85l52 53l-56 86l-103 -103v-281h168z" />
    <glyph glyph-name="quoteright" unicode="&#x2019;" 
d="M216 767v-160h61v-85l-52 -54l56 -85l103 103v281h-168z" />
    <glyph glyph-name="guillemotleft" unicode="&#xab;" 
d="M517 86l-139 213l139 214l-58 35l-180 -219v-60l180 -217zM322 86l-139 213l139 214l-58 35l-180 -219v-60l180 -217z" />
    <glyph glyph-name="guillemotright" unicode="&#xbb;" 
d="M84 86l58 -34l180 217v60l-180 219l-58 -35l139 -214zM279 86l58 -34l180 217v60l-180 219l-58 -35l139 -214z" />
    <glyph glyph-name="guilsinglleft" unicode="&#x2039;" 
d="M419 86l-139 213l139 214l-58 35l-180 -219v-60l180 -217z" />
    <glyph glyph-name="guilsinglright" unicode="&#x203a;" 
d="M321 299l-140 -213l58 -34l180 218v59l-180 219l-58 -35z" />
    <glyph glyph-name="quotedbl" unicode="&#x22;" 
d="M142 407h108v293h-108v-293zM350 407h108v293h-108v-293z" />
    <glyph glyph-name="quotesingle" unicode="'" 
d="M247 407h107v293h-107v-293z" />
    <glyph glyph-name="ampersand_ampersand.liga" 
d="M-328 728l-89 -94v-71l95 -140l-175 -181v-138l70 -104h282l79 83l56 -83h282l62 67l47 -67h120l-96 139l105 107v120h-155v-99h35l-41 -43l-126 187l161 168v58l-62 91h-233l-89 -94v-71l95 -140l-175 -181l-114 169l161 168v58l-62 91h-233zM-318 593l34 35h138l10 -15
l-116 -117zM99 593l33 35h139l10 -15l-116 -117zM-390 122v87l123 130l129 -189l-49 -50h-188zM42 100l-49 74l157 165l129 -189l-49 -50h-188z" />
    <glyph glyph-name="dollar_greater.liga" 
d="M-250 677v159h-110v-159h-92l-89 -92v-171l87 -129h252l23 -34v-139l-15 -13h-346l-41 -99h221v-160h110v160h101l78 81v187l-78 116h-252l-32 48v122l22 23h603l273 -262l-256 -249l68 -72l303 294v54l-347 335h-483z" />
    <glyph glyph-name="plus_plus.liga" 
d="M-255 506v-157h-157v-99h157v-155h98v155h157v99h-157v157h-98zM157 506v-157h-157v-99h157v-155h98v155h157v99h-157v157h-98z" />
    <glyph glyph-name="plus_plus_plus.liga" 
d="M-349 506v-157h-157v-99h157v-155h98v155h157v99h-157v157h-98zM-762 506v-157h-157v-99h157v-155h98v155h157v99h-157v157h-98zM64 506v-157h-157v-99h157v-155h98v155h157v99h-157v157h-98z" />
    <glyph glyph-name="equal_equal.liga" 
d="M-426 450h426v-99h-426v99zM-426 242h426v-99h-426v99zM0 450h426v-99h-426v99zM0 242h426v-99h-426v99z" />
    <glyph glyph-name="equal_equal_equal.liga" 
d="M-938 357h1276v-99h-1276v99zM-938 159h1276v-99h-1276v99zM-938 555h1276v-99h-1276v99z" />
    <glyph glyph-name="equal_greater.liga" 
d="M-425 450h694l24 -99h-718v99zM-425 242h718l-24 -99h-694v99zM123 616l302 -292v-54l-304 -294l-66 72l256 249l-257 246z" />
    <glyph glyph-name="equal_greater_equal.liga" 
d="M-184 450h460v-99h-404zM-128 242h404v-99h-460zM-328 616l302 -292v-54l-304 -294l-67 72l256 249l-257 246zM-877 450h694l24 -99h-718v99zM-877 242h718l-24 -99h-694v99z" />
    <glyph glyph-name="equal_less_equal.liga" 
d="M-416 450l-57 -99h-403v99h460zM-473 242l57 -99h-460v99h403zM-272 616l69 -73l-257 -246l256 -249l-66 -72l-304 294v54zM276 450v-99h-718l24 99h694zM276 242v-99h-694l-24 99h718z" />
    <glyph glyph-name="equal_less_less.liga" 
d="M-884 451h517v-99h-517v99zM-884 243h517v-99h-517v99zM-217 621l69 -73l-257 -246l256 -249l-66 -72l-304 294v54zM204 621l69 -73l-256 -246l256 -249l-67 -72l-304 294v54z" />
    <glyph glyph-name="greater_equal.liga" 
d="M-266 614l302 -292v-54l-304 -294l-67 72l256 249l-257 246zM-90 450h426v-99h-426v99zM-90 242h426v-99h-426v99z" />
    <glyph glyph-name="greater_greater_equal.liga" 
d="M284 451v-99h-517v99h517zM284 243v-99h-517v99h517zM-383 621l302 -292v-54l-304 -294l-66 72l256 249l-257 246zM-804 621l302 -292v-54l-304 -294l-67 72l256 249l-256 246z" />
    <glyph glyph-name="less_hyphen.liga" 
d="M-280 251v98h648v-98h-648zM-67 619l70 -73l-257 -246l256 -249l-67 -72l-304 294v54z" />
    <glyph glyph-name="less_asterisk_greater.liga" 
d="M-658 660l69 -73l-257 -246l256 -249l-66 -72l-304 294v54zM-352 540v-132l-126 40l-35 -101l127 -41l-78 -107l86 -63l78 107l78 -107l87 63l-77 107l125 41l-33 101l-126 -40v132h-106zM14 660l302 -292v-54l-304 -294l-67 72l256 249l-257 246z" />
    <glyph glyph-name="less_dollar.liga" 
d="M375 677v159h-109v-159h-93l-88 -92v-171l87 -129h251l24 -34v-139l-16 -13h-624l-247 240l256 247l-69 72l-302 -292v-54l321 -312h500v-160h109v160h101l78 81v187l-77 116h-252l-33 48v122l22 23h301l41 100h-181z" />
    <glyph glyph-name="less_dollar_greater.liga" 
d="M-250 677v159h-110v-159h-92l-89 -92v-171l87 -129h252l23 -34v-139l-15 -13h-624l-247 240l256 247l-70 72l-301 -292v-54l320 -312h500v-160h110v160h101l78 81v187l-78 116h-252l-32 48v122l22 23h603l273 -262l-256 -249l68 -72l303 294v54l-347 335h-483z" />
    <glyph glyph-name="less_equal.liga" 
d="M425 450v-99h-718l24 99h694zM425 242v-99h-694l-24 99h718zM-123 616l69 -73l-257 -246l256 -249l-66 -72l-304 294v54z" />
    <glyph glyph-name="at" unicode="@" 
d="M193 669l-190 -186v-383l154 -204h299v86h-261l-98 128v352l128 121h166l112 -98v-296h-47v195l-81 73h-115l-106 -107v-132l81 -110h289l73 47v355l-168 159h-236zM243 238v86l45 48h69v-183h-81z" />
    <glyph glyph-name="ampersand" unicode="&#x26;" 
d="M175 727l-89 -93v-72l94 -139l-175 -182v-138l70 -103h282l63 67l46 -67h120l-96 138l105 107v121h-154v-99h34l-41 -44l-126 188l161 167v59l-62 90h-232zM184 593l34 35h139l9 -15l-115 -117zM112 122v87l124 129l128 -188l-48 -51h-189z" />
    <glyph glyph-name="paragraph" unicode="&#xb6;" 
d="M144 767l-92 -94v-322l90 -134h109l55 32v-329h104v735h64v-735h74v847h-404z" />
    <glyph glyph-name="section" unicode="&#xa7;" 
d="M177 777l-84 -81v-118l43 -64l-45 -44v-125l83 -124h206l23 -32v-74l-13 -16h-202l-32 48l-68 -70l49 -77h298l76 84v125l-37 54l38 42v137l-75 112h-206l-31 44v63l22 19h162l46 -65l68 71l-63 91h-258zM230 321l-31 44v71l21 19h162l23 -33v-86l-13 -15h-162z" />
    <glyph glyph-name="copyright" unicode="&#xa9;" 
d="M200 514h208l72 -106l-51 -53l-59 87h-138l-32 -31v-148l40 -58h137l60 61l41 -61l-69 -72h-208l-81 120v178zM181 602l-163 -162v-239l163 -161h234l167 161v239l-167 162h-234z" />
    <glyph glyph-name="registered" unicode="&#xae;" 
d="M215 700l-115 -116v-170l115 -114h166l119 114v170l-119 116h-166zM234 629h120l51 -65v-33l-44 -54l41 -52v-48h-57v42l-43 55h-48v-97h-57v215zM254 577v-70h83l11 37v12l-22 21h-72z" />
    <glyph glyph-name="trademark" unicode="&#x2122;" 
d="M8 647v-54h80l29 -43v-250h60v258l-58 35h141v-293h61v231l72 -107v-2h64v69l75 78v-269h60v347h-60l-133 -137l-56 83v54h-335z" />
    <glyph glyph-name="degree" unicode="&#xb0;" 
d="M251 700l-65 -66v-95l65 -65h95l68 64v96l-68 66h-95zM280 635h39l29 -28v-41l-29 -27h-39l-28 27v41z" />
    <glyph glyph-name="bar" unicode="|" 
d="M247 -160v920h106v-920h-106z" />
    <glyph glyph-name="brokenbar" unicode="&#xa6;" 
d="M353 760h-106v-350h106v350zM353 190h-106v-350h106v350z" />
    <glyph glyph-name="dagger" unicode="&#x2020;" 
d="M258 0v700h84v-700h-84zM471 416h-342v84h342v-84z" />
    <glyph glyph-name="daggerdbl" unicode="&#x2021;" 
d="M258 0v700h84v-700h-84zM471 416h-342v84h342v-84zM471 169h-342v84h342v-84z" />
    <glyph glyph-name="uni24C0" unicode="&#x24c0;" 
d="M300 0q-62 0 -116.5 23.5t-95.5 64.5t-64.5 95.5t-23.5 116.5t23.5 116.5t64.5 95.5t95.5 64.5t116.5 23.5t116.5 -23.5t95.5 -64.5t64.5 -95.5t23.5 -116.5t-23.5 -116.5t-64.5 -95.5t-95.5 -64.5t-116.5 -23.5zM300 75q63 0 114 30t81 81t30 114t-30 114t-81 81
t-114 30t-114 -30t-81 -81t-30 -114t30 -114t81 -81t114 -30zM272 301l158 -126h-90l-114 89zM430 425l-158 -124l-46 36l113 88h91zM227 425v-249l-57 44v161z" />
    <glyph glyph-name="uni20BF" unicode="&#x20bf;" 
d="M69 700v-700h380l89 55v209l-99 146h-16l106 111v102l-54 77h-406zM176 601h245v-49l-136 -142h-109v191zM176 311h211l45 -63v-149h-256v212zM139 632h108v202h-108v-202zM319 632h108v202h-108v-202zM139 -139h108v199h-108v-199zM319 -139h108v199h-108v-199z" />
    <glyph glyph-name="cent" unicode="&#xa2;" 
d="M163 546l-86 -89v-330l85 -127h96v-159h107v159h91l79 81l-53 79l-65 -67h-199l-34 50v275l25 26h199l60 -87l69 71l-79 118h-93v167h-107v-167h-95z" />
    <glyph glyph-name="currency" unicode="&#xa4;" 
d="M460 569l-72 -72l-15 15h-146l-15 -15l-72 72l-70 -71l72 -71l-15 -16v-142l15 -18l-72 -70l70 -70l72 70l15 -15h146l15 15l72 -70l70 70l-72 70l15 18v142l-15 16l72 71zM332 417l45 -45v-65l-45 -45h-65l-44 45v66l44 44h65z" />
    <glyph glyph-name="dollar" unicode="$" 
d="M414 99h-245l-37 50l-68 -72l53 -77h132v-140h108v140h101l78 81v197l-77 116h-252l-33 48v132l22 23h201l46 -67l70 70l-63 97h-93v100h-108v-100h-93l-88 -92v-181l86 -129h252l24 -34v-149z" />
    <glyph glyph-name="Euro" unicode="&#x20ac;" 
d="M195 578l23 25h200l59 -87l70 73l-76 113h-294l-89 -91v-149h-40v-86h40v-59h-40v-86h40v-102l87 -129h294l83 84l-59 85l-65 -70h-200l-33 48v84h225v86h-225v59h225v86h-225v116z" />
    <glyph glyph-name="uni20BA" unicode="&#x20ba;" 
d="M146 748h107v-173l162 62v-95l-162 -62v-49l160 63v-96l-160 -63v-188l32 -47h90l102 154l57 -82l-115 -172h-186l-87 127v176l-78 -30v95l78 30v48l-80 -30v95l80 30v207z" />
    <glyph glyph-name="sterling" unicode="&#xa3;" 
d="M225 727l-88 -134v-178h-69v-98h69v-171l-33 -47h-56v-99h503v99h-328l22 33v185h191v98h-191v165l34 47h167v-72h106v172h-327z" />
    <glyph glyph-name="kda" 
d="M300 0q-62 0 -116.5 23.5t-95.5 64.5t-64.5 95.5t-23.5 116.5t23.5 116.5t64.5 95.5t95.5 64.5t116.5 23.5t116.5 -23.5t95.5 -64.5t64.5 -95.5t23.5 -116.5t-23.5 -116.5t-64.5 -95.5t-95.5 -64.5t-116.5 -23.5zM261 301l-63 -51l157 -123h125zM480 473h-126l-156 -122
l63 -50zM199 473l-79 -61v-223l79 -60v344z" />
    <glyph glyph-name="yen" unicode="&#xa5;" 
d="M428 700h106v-183l-181 -188v-329h-106v322l-181 269v109h106v-93l128 -190h2l126 132v151zM498 340v-86h-399v86h399zM498 202v-86h-399v86h399z" />
    <glyph glyph-name="plus" unicode="+" 
d="M251 506v-157h-157v-99h157v-155h98v155h157v99h-157v157h-98z" />
    <glyph glyph-name="minus" unicode="&#x2212;" 
d="M494 349h-388v-98h388v98z" />
    <glyph glyph-name="multiply" unicode="&#xd7;" 
d="M411 481l-111 -110l-111 110l-70 -70l111 -111l-111 -110l71 -70l110 110l111 -111l70 70l-111 111l111 110z" />
    <glyph glyph-name="divide" unicode="&#xf7;" 
d="M494 351h-388v-99h388v99zM275 547l-34 -35v-52l34 -35h50l36 35v52l-36 35h-50zM275 175l-34 -35v-52l34 -34h50l37 34v52l-37 35h-50z" />
    <glyph glyph-name="equal" unicode="=" 
d="M87 450h426v-99h-426v99zM87 242h426v-99h-426v99z" />
    <glyph glyph-name="notequal" unicode="&#x2260;" 
d="M481 562l-274 -566l-89 42l275 566zM87 450h426v-99h-426v99zM87 242h426v-99h-426v99z" />
    <glyph glyph-name="greater" unicode="&#x3e;" 
d="M184 660l302 -292v-54l-304 -294l-67 72l256 249l-257 246z" />
    <glyph glyph-name="less" unicode="&#x3c;" 
d="M416 660l70 -73l-257 -246l256 -249l-67 -72l-304 294v54z" />
    <glyph glyph-name="greaterequal" unicode="&#x2265;" 
d="M385 430l-282 -128l40 -89l355 159v117l-355 156l-37 -92zM498 163l-395 -4v-106h395v110z" />
    <glyph glyph-name="lessequal" unicode="&#x2264;" 
d="M215 430l279 123l-37 92l-355 -156v-117l355 -159l40 89zM102 163v-110h395v106z" />
    <glyph glyph-name="plusminus" unicode="&#xb1;" 
d="M494 152h-388v-99h388v99zM251 616v-157h-157v-99h157v-155h98v155h157v99h-157v157h-98z" />
    <glyph glyph-name="approxequal" unicode="&#x2248;" 
d="M474 501l51 -86l-126 -75l-182 51l-91 -55l-51 86l126 75l184 -49zM474 264l51 -86l-126 -75l-182 51l-91 -55l-51 86l126 75l184 -49z" />
    <glyph glyph-name="asciitilde" unicode="~" 
d="M522 379l-134 -65l-179 66l-169 -81l37 -78l138 66l176 -67l169 81z" />
    <glyph glyph-name="logicalnot" unicode="&#xac;" 
d="M513 379h-426v-99h318v-183h108v282z" />
    <glyph glyph-name="asciicircum" unicode="^" 
d="M299 727l168 -282l92 43l-203 352h-114l-198 -347l92 -45z" />
    <glyph glyph-name="infinity" unicode="&#x221e;" 
d="M577 440l-127 122h-71l-90 -62l-68 62h-105l-93 -62v-208l100 -94h87l99 67l70 -67h108l90 61v181zM394 478h32l74 -71v-107l-28 -18h-70l-45 46v126zM137 478h60l83 -79v-61l-84 -56h-50l-46 46v126z" />
    <glyph glyph-name="integral" unicode="&#x222b;" 
d="M568 904l-26 -90h-86l-60 -64l-90 -897l-124 -128h-134l25 90h73l60 64l90 897l124 128h148z" />
    <glyph glyph-name="product" unicode="&#x220f;" 
d="M560 737h-519v-95h90v-708l91 13v695h158v-708l91 13v695h89v95z" />
    <glyph glyph-name="summation" unicode="&#x2211;" 
d="M529 748h-458v-92l257 -327l-257 -338v-90h458v99h-343l227 292v78l-227 279h343v99z" />
    <glyph glyph-name="radical" unicode="&#x221a;" 
d="M705 853v-99h-127l-203 -754h-116l-155 373l82 44l116 -278h14l192 714h197z" />
    <glyph glyph-name="partialdiff" unicode="&#x2202;" 
d="M153 733l-31 -91l100 -33l91 -54l82 -82l17 -66l-109 57l-167 -65l-71 -190l70 -189l170 -73l168 73l62 189v104l-54 204l-103 107l-85 61zM212 93l-46 116l51 126l81 32l133 -70l5 -71l-44 -133l-87 -41z" />
    <glyph glyph-name="percent" unicode="%" 
d="M94 700l-53 -55v-79l53 -53h78l56 53v79l-56 55h-78zM513 705l-513 -655l85 -67l515 660zM426 187l-54 -54v-79l54 -54h78l55 54v79l-55 54h-78z" />
    <glyph glyph-name="perthousand" unicode="&#x2030;" 
d="M94 700l-53 -55v-79l53 -53h78l56 53v79l-56 55h-78zM557 544l-557 -220l39 -99l561 225zM426 187l-54 -54v-79l54 -54h78l55 54v78l-55 55h-78zM175 187l-54 -54v-79l54 -54h78l55 54v78l-55 55h-78z" />
    <glyph glyph-name="universal" unicode="&#x2200;" 
d="M79 177l170 -177h272v700h-107v-310h-228v310h-107v-523zM186 207v83h228v-191h-125z" />
    <glyph glyph-name="arrowup" unicode="&#x2191;" 
d="M620 375l-73 -69l-246 256l-249 -256l-72 67l294 304h54zM251 602h98v-505h-98v505z" />
    <glyph glyph-name="uni2197" unicode="&#x2197;" 
d="M525 99l-100 2l7 356l-357 -5l-3 98l422 7l39 -38zM425 521l69 -70l-357 -357l-69 69z" />
    <glyph glyph-name="arrowright" unicode="&#x2192;" 
d="M298 660l302 -292v-54l-304 -294l-67 72l256 249l-256 246zM525 291h-505v98h505v-98z" />
    <glyph glyph-name="uni2198" unicode="&#x2198;" 
d="M75 112l2 100l356 -7l-5 357l98 3l7 -422l-38 -39zM497 212l-70 -69l-357 357l69 69z" />
    <glyph glyph-name="arrowdown" unicode="&#x2193;" 
d="M-20 342l73 69l246 -256l249 256l72 -67l-294 -304h-54zM349 115h-98v505h98v-505z" />
    <glyph glyph-name="uni2199" unicode="&#x2199;" 
d="M88 562l100 -2l-7 -356l357 5l3 -98l-422 -7l-39 38zM188 140l-69 70l357 357l69 -69z" />
    <glyph glyph-name="arrowleft" unicode="&#x2190;" 
d="M302 660l69 -73l-256 -246l256 -249l-67 -72l-304 294v54zM75 291v98h505v-98h-505z" />
    <glyph glyph-name="uni2196" unicode="&#x2196;" 
d="M538 549l-2 -100l-356 7l5 -357l-98 -3l-7 422l38 39zM116 449l70 69l357 -357l-69 -69z" />
    <glyph glyph-name="arrowboth" unicode="&#x2194;" 
d="M149 511l69 -73l-120 -114l120 -117l-66 -72l-168 161v55zM39 273v99h528v-99h-528zM455 142l-70 72l117 112l-115 113l67 72l163 -158v-54z" />
    <glyph glyph-name="arrowupdn" unicode="&#x2195;" 
d="M112 149l72 69l115 -120l117 120l72 -67l-162 -168h-54zM349 39h-98v527h98v-527zM481 454l-72 -69l-112 117l-113 -115l-72 67l157 162h55z" />
    <glyph glyph-name="uni25CC" unicode="&#x25cc;" 
d="M353 767q-13 2 -26 2.5t-27 0.5h-2v-35h2q12 0 24.5 -0.5t23.5 -2.5zM199 721q12 4 24 6.5t25 4.5l-5 34q-13 -1 -26.5 -4t-26.5 -7zM459 739q-26 11 -52 17l-9 -34q12 -3 24 -7t24 -9zM106 683q11 6 22.5 11.5t22.5 10.5l-13 32q-13 -5 -25.5 -11t-23.5 -13zM554 684
q-11 9 -22.5 16.5t-23.5 14.5l-17 -31q21 -12 42 -27zM27 621q9 9 18.5 17.5t19.5 16.5l-22 27q-10 -8 -20.5 -17t-20.5 -19zM632 607q-8 11 -17.5 21.5t-19.5 19.5l-24 -24q9 -9 17.5 -18.5t15.5 -19.5zM-34 541q6 11 13.5 21.5t14.5 20.5l-28 21q-8 -10 -15.5 -22
t-14.5 -23zM687 513q-5 13 -11 25t-13 24l-31 -18q7 -10 12.5 -21.5t10.5 -23.5zM-72 448q3 12 7.5 24t8.5 24l-33 13q-5 -13 -9 -25.5t-8 -26.5zM716 407q-1 14 -4 27.5t-7 26.5l-34 -9q4 -12 6.5 -24.5t3.5 -24.5zM-85 350q0 12 1 24.5t2 24.5l-35 4l-2 -26t-1 -27v-1h35
v1zM717 295q2 14 2.5 28t0.5 27v3l-35 -1v-2q0 -13 -0.5 -25.5t-2.5 -24.5zM-71 249q-4 12 -6 24.5t-4 24.5l-35 -4q2 -13 4.5 -27t6.5 -27zM688 189q5 13 9.5 26t8.5 26l-34 9q-3 -12 -7 -24t-9 -23zM-33 156q-6 11 -11.5 22.5t-10.5 22.5l-33 -13q5 -13 11.5 -25t13.5 -24
zM633 94q9 11 16.5 22.5t14.5 23.5l-30 18q-7 -11 -13.5 -21.5t-14.5 -20.5zM29 77q-9 9 -17.5 18.5t-16.5 19.5l-27 -22q8 -10 17 -20.5t19 -20.5zM556 17q11 8 21 17t20 19l-25 25q-8 -9 -17.5 -17t-19.5 -16zM108 16q-10 6 -20.5 13.5t-21.5 14.5l-21 -28
q11 -8 22.5 -15.5t23.5 -14.5zM461 -38q27 11 50 24l-18 31q-11 -7 -22.5 -12.5t-22.5 -10.5zM201 -22q-12 3 -24 7t-23 9l-14 -33q13 -5 26 -9l26 -8zM356 -67q14 2 27 4.5t26 6.5l-9 34q-12 -3 -24 -5.5t-25 -4.5zM301 -70l-1 35q-12 0 -24.5 1t-24.5 2l-5 -35
q14 -1 27.5 -2t27.5 -1z" />
    <glyph glyph-name="lozenge" unicode="&#x25ca;" 
d="M346 718h-95l-192 -360l192 -358h95l195 360zM302 623l139 -265l-139 -266h-4l-139 266l139 265h4z" />
    <glyph glyph-name="uni2500" unicode="&#x2500;" 
d="M605 390v-80h-610v80h610z" />
    <glyph glyph-name="uni2502" unicode="&#x2502;" 
d="M340 1000v-1500h-80v1500h80z" />
    <glyph glyph-name="uni250C" unicode="&#x250c;" 
d="M605 390v-80h-265v-810h-80v890h345z" />
    <glyph glyph-name="uni2510" unicode="&#x2510;" 
d="M340 390v-890h-80v810h-265v80h345z" />
    <glyph glyph-name="uni2514" unicode="&#x2514;" 
d="M340 1000v-610h265v-80h-345v690h80z" />
    <glyph glyph-name="uni2518" unicode="&#x2518;" 
d="M340 1000v-690h-345v80h265v610h80z" />
    <glyph glyph-name="uni251C" unicode="&#x251c;" 
d="M340 1000v-610h265v-80h-265v-810h-80v1500h80z" />
    <glyph glyph-name="uni2524" unicode="&#x2524;" 
d="M340 1000v-1500h-80v810h-265v80h265v610h80z" />
    <glyph glyph-name="uni252C" unicode="&#x252c;" 
d="M605 390v-80h-265v-810h-80v810h-265v80h610z" />
    <glyph glyph-name="uni2534" unicode="&#x2534;" 
d="M340 1000v-610h265v-80h-610v80h265v610h80z" />
    <glyph glyph-name="uni253C" unicode="&#x253c;" 
d="M340 1000v-610h265v-80h-265v-810h-80v810h-265v80h265v610h80z" />
    <glyph glyph-name="uni0308" unicode="&#x308;" horiz-adv-x="0" 
d="M140 630v110h110v-110h-110zM350 630v110h110v-110h-110z" />
    <glyph glyph-name="uni0307" unicode="&#x307;" horiz-adv-x="0" 
d="M237 629v126h126v-126h-126z" />
    <glyph glyph-name="gravecomb" unicode="&#x300;" horiz-adv-x="0" 
d="M392 613l39 61l-198 129l-60 -85z" />
    <glyph glyph-name="acutecomb" unicode="&#x301;" horiz-adv-x="0" 
d="M208 613l219 105l-60 85l-198 -129z" />
    <glyph glyph-name="uni030B" unicode="&#x30b;" horiz-adv-x="0" 
d="M168 593l147 193l-93 50l-118 -204zM331 593l168 174l-86 61l-140 -190z" />
    <glyph glyph-name="uni0302" unicode="&#x302;" horiz-adv-x="0" 
d="M327 796h-54l-149 -113l53 -59l123 78l124 -78l52 59z" />
    <glyph glyph-name="uni030C" unicode="&#x30c;" horiz-adv-x="0" 
d="M327 683l149 114l-52 58l-124 -78l-123 78l-53 -58l149 -114h54z" />
    <glyph glyph-name="uni0306" unicode="&#x306;" horiz-adv-x="0" 
d="M112 728v71h121v-93h134v93h121v-71l-108 -108h-159z" />
    <glyph glyph-name="uni030A" unicode="&#x30a;" horiz-adv-x="0" 
d="M251 800l-65 -66v-95l65 -65h95l68 64v96l-68 66h-95zM280 735h39l29 -29v-40l-29 -27h-39l-28 27v40z" />
    <glyph glyph-name="tildecomb" unicode="&#x303;" horiz-adv-x="0" 
d="M470 799l-83 -50l-184 49l-116 -69l43 -72l86 54l181 -52l116 69z" />
    <glyph glyph-name="uni0304" unicode="&#x304;" horiz-adv-x="0" 
d="M444 701h-288v99h288v-99z" />
    <glyph glyph-name="uni0305" unicode="&#x305;" horiz-adv-x="0" 
d="M600 800h-600v99h600v-99z" />
    <glyph glyph-name="uni030D" unicode="&#x30d;" horiz-adv-x="0" 
d="M240 520v233h120v-233h-120z" />
    <glyph glyph-name="uni030E" unicode="&#x30e;" horiz-adv-x="0" 
d="M140 520v233h120v-233h-120zM340 520v233h120v-233h-120z" />
    <glyph glyph-name="uni0310" unicode="&#x310;" horiz-adv-x="0" 
d="M112 728v71h107v-93h162v93h107v-71l-108 -108h-159zM250 775v100h100v-100h-100z" />
    <glyph glyph-name="uni0312" unicode="&#x312;" horiz-adv-x="0" 
d="M354 523v123h-61v56l52 53l-56 56l-73 -74v-214h138z" />
    <glyph glyph-name="uni0313" unicode="&#x313;" horiz-adv-x="0" 
d="M216 800v-160h61v-85l-52 -53l56 -86l103 103v281h-168z" />
    <glyph glyph-name="uni0314" unicode="&#x314;" horiz-adv-x="0" 
d="M384 800h-168v-281l103 -103l56 86l-52 53v85h61v160z" />
    <glyph glyph-name="uni0316" unicode="&#x316;" horiz-adv-x="0" 
d="M392 -190l39 61l-198 129l-60 -85z" />
    <glyph glyph-name="uni0317" unicode="&#x317;" horiz-adv-x="0" 
d="M208 -190l219 105l-60 85l-198 -129z" />
    <glyph glyph-name="dotbelowcomb" unicode="&#x323;" horiz-adv-x="0" 
d="M237 -187v127h126v-127h-126z" />
    <glyph glyph-name="uni0324" unicode="&#x324;" horiz-adv-x="0" 
d="M140 -163v110h110v-110h-110zM350 -163v110h110v-110h-110z" />
    <glyph glyph-name="uni0325" unicode="&#x325;" horiz-adv-x="0" 
d="M251 -53l-65 -66v-96l65 -65h95l68 65v96l-68 66h-95zM280 -119h39l29 -27v-41l-29 -27h-39l-28 27v41z" />
    <glyph glyph-name="uni0326" unicode="&#x326;" horiz-adv-x="0" 
d="M249 -304l144 194l-92 49l-117 -204z" />
    <glyph glyph-name="uni0327" unicode="&#x327;" horiz-adv-x="0" 
d="M237 -131h100l-100 131h108l78 -91v-51l-80 -67h-106v78z" />
    <glyph glyph-name="uni0328" unicode="&#x328;" horiz-adv-x="0" 
d="M393 -131h-100l100 131l-100 10l-86 -101v-51l80 -67h106v78z" />
    <glyph glyph-name="uni032D" unicode="&#x32d;" horiz-adv-x="0" 
d="M327 -53h-54l-149 -114l53 -58l123 78l124 -78l52 58z" />
    <glyph glyph-name="uni032E" unicode="&#x32e;" horiz-adv-x="0" 
d="M112 -125v72h121v-93h134v93h121v-72l-108 -108h-159z" />
    <glyph glyph-name="uni0331" unicode="&#x331;" horiz-adv-x="0" 
d="M444 -153h-288v100h288v-100z" />
    <glyph glyph-name="uni0335" unicode="&#x335;" horiz-adv-x="0" 
d="M430 251h-260v98h260v-98z" />
    <glyph glyph-name="uni0336" unicode="&#x336;" horiz-adv-x="0" 
d="M600 251h-600v98h600v-98z" />
    <glyph glyph-name="uni0337" unicode="&#x337;" horiz-adv-x="0" 
d="M366 646l-244 -719l92 -31l245 719z" />
    <glyph glyph-name="uni0338" unicode="&#x338;" horiz-adv-x="0" 
d="M416 794l93 -31l-298 -876l-92 31z" />
    <glyph glyph-name="dieresis" unicode="&#xa8;" 
d="M127 623v130h130v-130h-130zM343 623v130h130v-130h-130z" />
    <glyph glyph-name="dotaccent" unicode="&#x2d9;" 
d="M237 623v127h126v-127h-126z" />
    <glyph glyph-name="grave" unicode="`" 
d="M392 613l39 61l-198 129l-60 -85z" />
    <glyph glyph-name="acute" unicode="&#xb4;" 
d="M208 613l219 105l-60 85l-198 -129z" />
    <glyph glyph-name="hungarumlaut" unicode="&#x2dd;" 
d="M168 593l147 193l-93 50l-118 -204zM331 593l168 174l-86 61l-140 -190z" />
    <glyph glyph-name="circumflex" unicode="&#x2c6;" 
d="M327 796h-54l-149 -113l53 -59l123 78l124 -78l52 59z" />
    <glyph glyph-name="caron" unicode="&#x2c7;" 
d="M327 683l149 114l-52 58l-124 -78l-123 78l-53 -58l149 -114h54z" />
    <glyph glyph-name="breve" unicode="&#x2d8;" 
d="M112 728v71h121v-93h134v93h121v-71l-108 -108h-159z" />
    <glyph glyph-name="ring" unicode="&#x2da;" 
d="M251 800l-65 -66v-95l65 -65h95l68 64v96l-68 66h-95zM280 735h39l29 -29v-40l-29 -27h-39l-28 27v40z" />
    <glyph glyph-name="tilde" unicode="&#x2dc;" 
d="M470 799l-83 -50l-184 49l-116 -69l43 -72l86 54l181 -52l116 69z" />
    <glyph glyph-name="macron" unicode="&#xaf;" 
d="M444 701h-288v99h288v-99z" />
    <glyph glyph-name="cedilla" unicode="&#xb8;" 
d="M237 -131h100l-100 131h108l78 -91v-51l-80 -67h-106v78z" />
    <glyph glyph-name="ogonek" unicode="&#x2db;" 
d="M393 -131h-100l100 131h-108l-78 -91v-51l80 -67h106v78z" />
    <glyph glyph-name="caron.alt" 
d="M254 943l129 -17l-78 -232l-88 16z" />
    <glyph glyph-name="uniEE00" unicode="&#xee00;" 
d="M600 -40h-499v790h499v73h-579v-936h579v73z" />
    <glyph glyph-name="uniEE01" unicode="&#xee01;" 
d="M-7 -40v-73h614v73h-614zM-7 823v-73h614v73h-614z" />
    <glyph glyph-name="uniEE02" unicode="&#xee02;" 
d="M0 -40v-73h579v936h-579v-73h499v-790h-499z" />
    <glyph glyph-name="uniEE03" unicode="&#xee03;" 
d="M217 644v-590h383v590h-383zM600 -40h-499v790h499v73h-579v-936h579v73z" />
    <glyph glyph-name="uniEE04" unicode="&#xee04;" 
d="M-7 644v-590h614v590h-614zM-7 -40v-73h614v73h-614zM-7 823v-73h614v73h-614z" />
    <glyph glyph-name="uniEE05" unicode="&#xee05;" 
d="M383 644h-383v-590h383v590zM0 -40v-73h579v936h-579v-73h499v-790h-499z" />
    <glyph glyph-name="idotlessogonek" 
d="M107 563v-97h108l33 -48v-321h-182v-97h468v97h-182v338l-86 128h-159zM353 -121h-100l100 131l-100 10l-86 -101v-51l80 -67h106v78z" />
    <glyph glyph-name="liga.spacer" 
 />
    <glyph glyph-name="www.liga" 
d="M129 0h84l82 83l54 -83h86l147 152v343h-108v-311l-75 -74h-3l-56 80v305h-107v-332l-55 -53h-4l-75 111v274h-108v-247l-137 -138h-3l-56 80v305h-107v-332l-55 -53h-4l-125 184v201h-107v-300l-86 -85h-3l-56 80v305h-107v-332l-55 -53h-4l-75 111v274h-108v-292
l138 -203h84l81 83l54 -83h87l140 144l97 -144h84l82 83l53 -83h87l141 146z" />
  </font>
</defs>
</svg>
