<?xml version="1.0" standalone="no"?>
<!DOCTYPE svg PUBLIC "-//W3C//DTD SVG 1.1//EN" "http://www.w3.org/Graphics/SVG/1.1/DTD/svg11.dtd" >
<svg>
<metadata>
Created by FontForge 20120731 at Mon Jul  8 08:46:27 2024
 By www-data
</metadata>
<defs>
<font id="TitanBold-Regular" horiz-adv-x="983" >
  <font-face 
    font-family="Titan Bold"
    font-weight="400"
    font-stretch="normal"
    units-per-em="1000"
    panose-1="0 0 0 0 0 0 0 0 0 0"
    ascent="750"
    descent="-250"
    cap-height="700"
    bbox="-0.888889 0 1554 700"
    underline-thickness="50"
    underline-position="-75"
    unicode-range="U+000D-005A"
  />
<missing-glyph horiz-adv-x="250" 
 />
    <glyph glyph-name=".notdef" horiz-adv-x="250" 
 />
    <glyph glyph-name=".null" horiz-adv-x="0" 
 />
    <glyph glyph-name=".null" horiz-adv-x="0" 
 />
    <glyph glyph-name="uni000D" unicode="&#xd;" horiz-adv-x="250" 
 />
    <glyph glyph-name="space" unicode=" " horiz-adv-x="260" 
 />
    <glyph glyph-name="plus" unicode="+" horiz-adv-x="986" 
d="M0 290v119q0 14 9 23.5t23 9.5h229v228q0 12 9 21t22 9h264q13 0 22 -9t9 -21v-228h382q14 0 17.5 -13t-8.5 -20l-239 -138q-23 -13 -47 -13h-105v-228q0 -12 -9 -21t-22 -9h-264q-13 0 -22 9t-9 21v228h-229q-7 0 -15 4l-2 1l-2 2q-3 2 -4 3q-9 9 -9 22z" />
    <glyph glyph-name="hyphen" unicode="-" horiz-adv-x="653" 
d="M0 411q0 13 8 23q3 0 4 2l4 3q4 3 15 3h326q26 0 48 -13l240 -138q12 -7 8.5 -20t-16.5 -13h-605q-14 0 -23 9.5t-9 23.5v120z" />
    <glyph glyph-name="period" unicode="." horiz-adv-x="185" 
d="M48 0q-20 0 -33.5 13.5t-13.5 33.5v90q0 19 13.5 33t33.5 14h89q20 0 34 -14t14 -33v-90q0 -20 -14 -33.5t-34 -13.5h-89z" />
    <glyph glyph-name="zero" unicode="0" horiz-adv-x="982" 
d="M632 197v306h-282v-306h282zM973 538q9 -6 9 -16v-344q0 -10 -9 -16l-257 -148q-23 -14 -49 -14h-351q-27 0 -50 14l-256 148q-10 6 -10 16v344q0 10 10 16l256 148q23 14 50 14h351q26 0 49 -14z" />
    <glyph glyph-name="one" unicode="1" horiz-adv-x="699" 
d="M689 690q10 -9 10 -24v-632q0 -14 -10 -24t-24 -10h-282q-14 0 -24 10t-10 24v469h-331q-7 0 -11.5 4t-6.5 9.5t0.5 11.5t8.5 10l257 148q23 14 51 14h348q10 0 17 -4q1 -1 2 -1z" />
    <glyph glyph-name="two" unicode="2" 
d="M949 700q14 0 24 -10t10 -24v-347q0 -14 -10 -24t-24 -10h-599v-88h614q9 0 14 -5.5t5 -13.5v-144q0 -14 -10 -24t-24 -10h-915q-14 0 -24 10t-10 24v347q0 14 10 24t24 10h599v88h-614q-7 0 -11.5 4t-6.5 9.5t0.5 11.5t8.5 10l257 148q22 13 45 14h637z" />
    <glyph glyph-name="three" unicode="3" horiz-adv-x="984" 
d="M974 690q10 -10 10 -24v-632q0 -6 -1 -10q-1 -3 -5 -9q-1 -5 -8 -7q-2 -2 -4.5 -3t-4.5 -3q-6 -2 -11 -2h-915q-14 0 -24 10t-10 24v129q0 15 10 24q1 2 3 4h1l1 1q2 0 2 2q8 3 17 3h599v88h-468q-14 0 -24 10t-10 24v63q0 14 10 24t24 10h468v88h-614q-7 0 -12 4
t-6.5 9.5t0.5 11.5t9 9l257 149q22 13 50 13h636q3 0 5 -0.5t5 -1.5l1 -1l1 -1q3 -1 8 -6z" />
    <glyph glyph-name="four" unicode="4" horiz-adv-x="1113" 
d="M1079 329q13 0 23 -10q11 -12 11 -25v-63q0 -13 -11 -23q-7 -10 -23 -10h-98v-165q0 -14 -8 -23q-6 -5 -11.5 -7.5t-13.5 -2.5h-281q-12 0 -25 10q-11 11 -11 23v165h-598q-14 0 -23 10q-10 12 -10 23v292q0 5 2.5 8t5.5 7l259 147q19 15 50 15h631q8 0 13.5 -2.5
t11.5 -7.5q8 -9 8 -23v-338h98zM632 503h-282v-174h282v174z" />
    <glyph glyph-name="five" unicode="5" horiz-adv-x="984" 
d="M351 504v-88h598q14 0 24.5 -10t10.5 -24v-348q0 -14 -10.5 -24t-24.5 -10h-631q-28 0 -51 14l-258 148q-9 7 -9 14v2q0 4 1 7q0 2 1.5 3.5l2.5 2.5q5 6 14 6h614v88h-599q-14 0 -24 10t-10 24v347q0 14 10 24t24 10h915q14 0 24.5 -10t10.5 -24v-143q0 -8 -5.5 -13.5
t-13.5 -5.5h-614z" />
    <glyph glyph-name="six" unicode="6" 
d="M0 666q0 14 10 24t24 10h636q24 -2 46 -14l257 -148q6 -4 8.5 -10t1 -11.5t-6.5 -9.5t-12 -4h-614v-87h598q14 0 24 -10.5t10 -24.5l1 -347q0 -14 -10.5 -24t-24.5 -10h-636q-24 2 -46 14l-257 148q-7 4 -9 14v490zM350 285v-88h282v88h-282z" />
    <glyph glyph-name="seven" unicode="7" 
d="M981 676q2 -6 2 -10v-91q0 -22 -19 -32l-201 -116l-130 -75v-318q0 -14 -10.5 -24t-24.5 -10h-285l-4 1h-2q-2 1 -3.5 1.5t-3.5 1.5q-6 5 -11 11q-2 2 -2 3l-3 6v2q-1 1 -1 3v250q0 22 19 33l199 115l131 76h-613q-9 0 -14 5.5t-5 13.5v144q0 14 10 24t24 10h914
q5 0 8 -1l9 -3q8 -4 13 -14z" />
    <glyph glyph-name="eight" unicode="8" horiz-adv-x="982" 
d="M632 415v88h-282v-88h282zM632 197v87h-282v-87h282zM973 538q9 -5 9 -16v-344q0 -11 -9 -16l-257 -148q-23 -14 -49 -14h-351q-25 0 -50 14l-256 148q-10 6 -10 16v344q0 10 10 16l256 148q25 14 50 14h351q26 0 49 -14z" />
    <glyph glyph-name="nine" unicode="9" 
d="M973 538q3 -2 5 -4q5 -3 5 -12v-488q0 -14 -10 -24t-24 -10h-637q-23 1 -45 14l-257 148q-6 4 -8.5 10t-0.5 11.5t6.5 9.5t11.5 4h614v88h-601q-14 0 -23 9t-9 22v350q0 14 10 24t24 10h637q23 -1 45 -14zM633 415v88h-283v-88h283z" />
    <glyph glyph-name="A" unicode="A" horiz-adv-x="1552" 
d="M1554 34q0 -14 -10 -24t-24 -10h-282q-14 0 -24 10t-10 24v469l-847 -489q-25 -14 -51 -14h-283q-9 0 -14.5 5t-7 12t1 14t9.5 11l1116 644q23 14 51 14h341q11 0 16 -4q1 0 1.5 -0.5t1.5 -0.5l2 -2l3 -3q10 -10 10 -24v-632z" />
    <glyph glyph-name="B" unicode="B" horiz-adv-x="1331" 
d="M1318 434q13 -26 13 -51v-66q0 -25 -13 -51l-149 -256q-6 -10 -16 -10h-1119q-13 0 -20 7q-2 1 -4 3l-3 3q-1 1 -1 2q-1 1 -1 1.5t-1 1.5q-2 2 -2 5q-2 6 -2 8v635q0 3 0.5 5.5t1.5 5.5v2q2 4 4.5 7.5t5.5 5.5q2 2 6 4q8 4 16 4h1119q10 0 16 -10zM981 131v154h-631v-154
h631zM981 416v153h-631v-153h631z" />
    <glyph glyph-name="C" unicode="C" horiz-adv-x="899" 
d="M899 34q0 -14 -10 -24t-24 -10h-831q-14 0 -24 10t-10 24v637q1 1 1 3t1 3q0 1 1 2q0 1 0.5 1.5t0.5 1.5q1 1 1 1.5t1 1.5q0 2 2 2v1l2 2q10 10 24 10h831q14 0 24 -10t10 -24v-63q0 -14 -10 -24t-24 -10h-515v-438h515q14 0 24 -10t10 -24v-63z" />
    <glyph glyph-name="D" unicode="D" horiz-adv-x="1333" 
d="M1332 317q0 -26 -14 -51l-148 -256q-6 -10 -16 -10h-1120q-14 0 -24 10l-2 2v1q-2 0 -2 2q-1 1 -1 1.5t-1 1.5l-1 3l-1 2q0 1 -1 1q0 2 -0.5 3.5t-0.5 3.5v638q0 2 0.5 3.5t0.5 3.5q4 11 13 17.5t20 6.5h1120q10 0 16 -10l148 -256q14 -25 14 -51v-66zM982 131v438h-632
v-438h632z" />
    <glyph glyph-name="E" unicode="E" horiz-adv-x="899" 
d="M865 700q14 0 24 -10t10 -24v-63q0 -14 -10 -24t-24 -10h-515v-154h288q14 0 24 -9.5t10 -23.5v-64q0 -14 -10 -24t-24 -10h-288v-153h515q14 0 24 -10t10 -24v-63q0 -14 -10 -24t-24 -10h-831q-14 0 -24 10l-2 2v1q-2 0 -2 2q-1 1 -1 1.5t-1 1.5q0 1 -0.5 1.5t-0.5 1.5
l-1 2q-1 1 -1 3t-1 3v637q0 14 10 24t24 10h831z" />
    <glyph glyph-name="F" unicode="F" horiz-adv-x="842" 
d="M0 666q0 14 10 24t24 10h775q14 0 23.5 -10t9.5 -24v-63q0 -14 -9.5 -24t-23.5 -10h-459v-154h288q14 0 24 -9.5t10 -23.5v-64q0 -14 -10 -24t-24 -10h-288v-250q0 -14 -10 -24t-24 -10h-282q-14 0 -24 10l-2 2v1q-2 0 -2 2q-1 1 -1 1.5t-1 1.5q0 1 -0.5 1.5t-0.5 1.5
q-1 1 -1 2q-1 1 -1 3t-1 3v637z" />
    <glyph glyph-name="G" unicode="G" horiz-adv-x="1079" 
d="M34 0q-14 0 -24 10l-1 1l-1 1q-1 1 -1 2q-1 0 -1 1q-1 1 -1 2q-2 2 -2 4l-1 2q-1 1 -1 3v3l-1 2v635q0 14 10 24t24 10h1011q14 0 24 -10t10 -24v-63q0 -14 -10 -24t-24 -10h-695v-438h379v153h-214q-14 0 -24 10t-10 24v64q0 14 10 23.5t24 9.5h530q14 0 24 -9.5
t10 -23.5v-348q0 -14 -10.5 -24t-24.5 -10h-1010z" />
    <glyph glyph-name="H" unicode="H" horiz-adv-x="1079" 
d="M34 0q-14 0 -24 10l-1 1l-1 1q-1 1 -1 2l-2 2q-1 1 -1 2q-1 1 -1 3l-1 2q-1 1 -1 3t-1 3v637q0 14 10 24t24 10h282q14 0 24 -10t10 -24v-251h379v251q0 14 9.5 24t23.5 10h283q14 0 24 -10l2 -2v-1q1 0 1 -1l1 -1q0 -1 2 -3q0 -1 0.5 -1.5t0.5 -1.5l1 -2v-3q1 -1 1 -3
v-2q1 -1 1 -3v-632q0 -14 -10.5 -24t-24.5 -10h-282q-14 0 -23.5 10t-9.5 24v250h-379v-250q0 -14 -10 -24t-24 -10h-282z" />
    <glyph glyph-name="I" unicode="I" horiz-adv-x="350" 
d="M316 700q14 0 24 -10t10 -24v-632q0 -14 -10 -24t-24 -10h-282q-14 0 -24 10l-1 1l-1 1q-1 1 -1 2l-2 1v1q-1 1 -1 2q-1 1 -1 3l-1 2q-1 1 -1 3t-1 3v637q0 14 10 24t24 10h282z" />
    <glyph glyph-name="J" unicode="J" horiz-adv-x="677" 
d="M34 0q-14 0 -24 10t-10 24v63q0 14 10 24t24 10h184v438h-75q-14 0 -24 10t-10 24v63q0 14 10 24t24 10h500q14 0 24 -10t10 -24v-63q0 -14 -10 -24t-24 -10h-75v-535q0 -14 -10 -24t-24 -10h-500z" />
    <glyph glyph-name="K" unicode="K" horiz-adv-x="1071" 
d="M1060 42q8 -4 10 -11t0.5 -14t-7 -12t-14.5 -5h-283q-26 0 -51 14l-365 212v-192q0 -14 -10 -24t-24 -10h-282q-14 0 -24 10l-2 2q0 1 -1 1q-1 1 -1 2q-1 1 -1 1.5t-1 1.5t-1 3l-1 2q-2 6 -2 8v638q0 2 2 8q0 1 1 2q0 2 1 3t1 1.5t1 1.5l1 2l1 1l2 2q10 10 24 10h282
q14 0 24 -10t10 -24v-192l365 212q25 14 51 14h283q9 0 14.5 -5t7 -12t-0.5 -14t-10 -11l-399 -231l-88 -51l-44 -26l44 -26l49 -28z" />
    <glyph glyph-name="L" unicode="L" horiz-adv-x="672" 
d="M34 0q-14 0 -24 10t-10 24v635l1 2v3q0 2 1 3q0 1 1 2l1 3q1 1 1 1.5t1 1.5q0 2 2 2v1l2 2q10 10 24 10h282q14 0 24 -10t10 -24v-535h288q14 0 24 -10t10 -24v-63q0 -14 -10 -24t-24 -10h-604z" />
    <glyph glyph-name="M" unicode="M" horiz-adv-x="1553" 
d="M1543 690q10 -10 10 -24v-639q-2 -11 -10.5 -18t-19.5 -9h-275q-13 0 -25 3q-20 10 -20 31v469l-229 -133l-159 -92q-18 -10 -38.5 -10t-37.5 10l-160 92l-229 133v-469q0 -21 -19 -31q-12 -3 -26 -3h-275q-25 3 -30 28v638q0 14 10 24l3 3q1 1 1.5 1t1.5 1q1 0 2 1
q7 4 16 4h342q26 0 51 -14l350 -202l350 202q23 14 51 14h341q11 0 16 -4q1 -1 3 -1l2 -2z" />
    <glyph glyph-name="N" unicode="N" horiz-adv-x="1553" 
d="M1553 666v-638q-5 -25 -31 -28h-274q-13 0 -25 3q-7 2 -13.5 4.5t-12.5 6.5l-847 489v-469q0 -14 -10 -24t-24 -10h-282q-14 0 -24 10t-10 24v632q0 14 10 24q2 2 4 3l2 2q1 0 2 1q4 2 7.5 3t8.5 1h342q26 0 51 -14l776 -448v428q0 14 10 24t24 10h282q14 0 24 -10
t10 -24z" />
    <glyph glyph-name="O" unicode="O" horiz-adv-x="957" 
d="M944 434q13 -24 13 -51v-66q0 -25 -13 -51l-149 -257q-6 -9 -16 -9h-600q-11 0 -16 9l-149 257q-14 25 -14 51v66q0 28 14 51l149 257q5 9 16 9h600q10 0 16 -9zM607 131v438h-256v-438h256z" />
    <glyph glyph-name="P" unicode="P" horiz-adv-x="1073" 
d="M1040 700q14 0 23.5 -10t9.5 -24v-64q0 -20 -5 -33q-2 -5 -4 -9t-4 -9l-148 -257q-5 -7 -14 -9q-1 0 -1.5 -0.5t-1.5 -0.5h-545v-250q0 -14 -10 -24t-24 -10h-283q-5 0 -6 1q-2 0 -2.5 0.5t-1.5 0.5t-1.5 0.5t-1.5 0.5l-2 1l-2 1l-2 2l-2 1l-4 4v1q-2 0 -2 2q-1 1 -1 1.5
t-1 1.5l-1 3l-1 2l-1 3q0 2 -1 3v637q0 14 10 24t24 10h1006zM724 415v154h-374v-154h374z" />
    <glyph glyph-name="Q" unicode="Q" horiz-adv-x="1327" 
d="M1316 42q8 -4 10 -11t0.5 -14t-7 -12t-14.5 -5h-283q-28 0 -51 14l-131 76l-46 -80q-6 -9 -16 -9h-600q-10 0 -16 9l-148 257q-14 25 -14 51v65q0 28 14 51l148 257q6 9 16 9h600q10 0 16 -9l70 -123l78 -134q2 -5 4 -9.5t4 -9.5q6 -15 6 -32v-65q0 -19 -7 -33
q-1 -9 -7 -18l-3 -6zM606 132v437h-256v-437h256z" />
    <glyph glyph-name="R" unicode="R" horiz-adv-x="1073" 
d="M898 285q0 -1 -3 -1h-253l418 -242q8 -4 10 -11t0.5 -14t-7 -12t-14.5 -5h-283q-26 0 -51 14l-365 212v-192q0 -14 -10 -24t-24 -10h-283q-4 0 -6 1h-2l-2 1q-1 0 -1.5 0.5t-1.5 0.5q-4 2 -5 3q-1 0 -1 1l-2 1l-5 5q0 1 -0.5 1t-0.5 1q-1 1 -1 1.5t-1 1.5q0 1 -2 3v1
q0 1 -1 1v3q0 2 -1 3v640q0 3 1 4q0 5 3 9q10 18 30 18h1006q23 0 31 -22q2 -4 2 -12v-64q0 -20 -5 -33q-2 -5 -4 -9t-4 -9l-148 -257q-5 -7 -14 -9zM723 416v153h-373v-153h373z" />
    <glyph glyph-name="S" unicode="S" horiz-adv-x="1079" 
d="M1045 700q14 0 24 -10t10 -24v-63q0 -14 -10 -24t-24 -10h-695v-154h695q14 0 24 -9.5t10 -23.5v-65q0 -16 -6 -33q-2 -5 -4 -9t-4 -9l-148 -257q-6 -9 -16 -9h-867q-14 0 -24 10t-10 24v63q0 14 10 24t24 10h695v153h-695q-14 0 -24 10t-10 24v348q0 14 10 24t24 10
h1011z" />
    <glyph glyph-name="T" unicode="T" horiz-adv-x="1066" 
d="M1032 700q14 0 24 -10t10 -24v-63q0 -14 -10 -24t-24 -10h-324v-535q0 -14 -10 -24t-24 -10h-282q-14 0 -24 10t-10 24v535h-324q-14 0 -24 10t-10 24v63q0 14 10 24t24 10h998z" />
    <glyph glyph-name="U" unicode="U" horiz-adv-x="1079" 
d="M1078 671q0 -1 0.5 -1t0.5 -1v-635q0 -14 -10 -24t-24 -10h-1011q-14 0 -24 10l-2 2v1q-2 0 -2 2q-1 1 -1 1.5t-1 1.5l-1 3l-1 2l-1 3q0 2 -1 3v637q0 14 10 24t24 10h282q14 0 24 -10t10 -24v-535h379v535q0 14 10 24t24 10h282q14 0 24 -10l2 -2v-1l2 -2q1 -1 1 -1.5
t1 -1.5q0 -1 0.5 -1.5t0.5 -1.5l1 -2q0 -2 1 -3v-3z" />
    <glyph glyph-name="V" unicode="V" horiz-adv-x="1554" 
d="M1554 666v-632q0 -14 -10 -24l-3 -3l-2 -2q-1 0 -1.5 -0.5t-1.5 -0.5q-5 -4 -16 -4h-342q-27 0 -50 14l-1116 644q-7 4 -9.5 11t-1 14t7 12t14.5 5h283q26 0 51 -14l847 -489v469q0 14 10 24t24 10h282q14 0 24 -10t10 -24z" />
    <glyph glyph-name="W" unicode="W" horiz-adv-x="1553" 
d="M1523 700q25 -3 30 -28v-638q0 -14 -10 -24l-3 -3l-2 -2q-2 0 -2 -1q-7 -4 -17 -4h-341q-28 0 -51 14l-350 202l-351 -202q-23 -14 -50 -14h-342q-9 0 -16 4l-2 1l-2 2q-2 1 -4 3q-10 10 -10 24v632q0 5 1 7q2 11 10 18t19 9h275q13 0 26 -3q19 -10 19 -31v-469l229 133
l160 92q17 10 37.5 10t38.5 -10l159 -92l229 -133v469q0 21 19 31q14 3 26 3h275z" />
    <glyph glyph-name="X" unicode="X" horiz-adv-x="1554" 
d="M1540 693q2 -1 4 -3q10 -10 10 -24v-63q0 -14 -10 -24t-24 -10h-202l-114 -66l-92 -53l-138 -80l230 -132l339 -196q8 -4 10 -14t-4 -19t-18 -9h-283q-13 0 -25 3q-11 3 -25 11l-421 242l-421 -242q-14 -8 -25 -11q-12 -3 -25 -3h-283q-12 0 -18 9t-4 19t11 14l338 196
l230 132l-44 26l-186 107l-114 66h-202q-14 0 -24 10t-10 24v63q0 14 10 24q1 1 2 1.5t2 1.5l2 2q1 0 1 0.5t1 0.5q7 4 16 4h342q26 0 51 -14l141 -81l209 -121l209 121l141 81q25 14 51 14h342q9 0 16 -4q1 0 1 -0.5t1 -0.5z" />
    <glyph glyph-name="Y" unicode="Y" horiz-adv-x="1071" 
d="M1070 677q0 -2 0.5 -4t0.5 -4v-638q0 -2 -0.5 -4t-0.5 -4q-1 0 -1 -2q-1 -1 -1 -1.5t-1 -1.5q0 -1 -2 -3l-1 -2l-1 -1l-2 -2q-10 -10 -24 -10h-1003q-14 0 -24 10t-10 24v63q0 14 10 24t24 10h687v115l-179 104l-158 92l-373 216q-7 4 -9.5 11t-1 14t7 12t14.5 5h283
q26 0 51 -14l365 -212v192q0 14 10 24t24 10h282q14 0 24 -10l2 -2l1 -1q1 -1 1 -2q2 -2 2 -3l2 -3q0 -2 1 -2z" />
    <glyph glyph-name="Z" unicode="Z" horiz-adv-x="1203" 
d="M1203 522q0 -20 -17 -29l-627 -362h610q14 0 24 -9.5t10 -23.5v-67q0 -2 -2 -8v-2l-2 -3q-1 -1 -1 -1.5t-1 -1.5l-1 -2l-1 -1l-2 -2q-10 -10 -24 -10h-1147q-9 0 -14.5 5t-7 12t1 14t9.5 11l912 527h-890q-14 0 -23.5 10t-9.5 24v66q0 2 0.5 4t0.5 4q1 0 1 2l2 3
q0 1 0.5 1.5t0.5 1.5l2 2v1q1 1 1.5 1t1.5 1q10 10 23 10h1140q12 -2 21 -11t9 -22v-145z" />
  </font>
</defs>
</svg>
